2 сезон

iTunes

WEBRip

1

2 сезон

iTunes

1 сезон

1 сезон

RePack

30

Новинка

ВАЖНО

ИГРА 18+

pack

RePack

MK11
pack

Легкие деньги

RePack

jed

RePack

fifa19

RePack

RDR2

RePack

NEED FOR SPEED™ PAYBACK

4 сезон

9 сезон

Бесстыжие 9 сезон

Все сериалы

все сериалы на PB.wtf

RePack

FAR CRY 5

Anonymous, доброй ночи, мы не успеваем собрать деньги на оплату серверов за февраль, помогите нам пожалуйста в это трудное время. В качестве благодарности мы отключим Вам всю рекламу на сайте (укажите свой ник в строку Ваше имя)!

×
  
Magnet ссылка

Маленькие волшебницы / Vier zauberhafte Schwestern (Свен Унтервальдт мл.) [2020 г., фэнтези, комедия, приключения, семейный, WEB-DLRip, Дубляж "iTunes"] pb.wtf

Маленькие волшебницы через торрент pb.wtf

Раздают: 4 [ 0 KB/s ]
Размер: 715 MB | Добавлен: 9 д. назад | Торрент скачан:9 раз
Скачать  

22-02-2021 14:11 Маленькие волшебницы Скачать торрент  

Маленькие волшебницы / Vier zauberhafte Schwestern
Год выпуска: 2020
Страна: Германия / Dor Film Produktionsgesellschaft, FilmVergnuegen, Potemkino
Жанр: фэнтези, комедия, приключения, семейный
Продолжительность: 01:36:41
Перевод: Дубляж (iTunes)

Режиссер: Свен Унтервальдт мл.

rating

В ролях: Лайла Падоцке, Хедда Эрлебах, Лилит Джули Джона, Леонора фон Берг, Катя Риман, Юстус фон Донаньи, Анна Тальбах, Грегор Блоэб, Дорис Шретцмайер, Юль Зергер

Описание: Четыре сестры Флейм, Флора, Марина и Скай живут с родителями в живописном фамильном замке. На первый взгляд это самые обычные девочки-школьницы, они ходят в кружки и секции, отлично поют, мечтают прославиться и готовятся к участию в музыкальном шоу для молодых талантов. Окружающие и не подозревают о том, что героини обладают особым даром, унаследованным от предков, который тщательно скрывают. Три старшие сестры уже овладели умением повелевать стихиями огня, воды и земли. В свой девятый день рождения у младшей из сестёр тоже появляется волшебный талант - управлять воздухом. Теперь сестрам предстоит спуститься в подвал замка, где спрятана Роза ветров, чтобы разгадать ее тайну. Тем временем злая волшебница Гленда стремится захватить Влacть над миром и тоже ищет волшебную Розу. Смогут ли маленькие волшебницы спасти мир от злой колдуньи и защитить свой дом?

Качество: WEB-DLRip
Формат: AVI
Видео кодек: DivX
Аудио кодек: MP3
Видео: 672x280 (2.40:1), 24.000 fps, XviD build 50 ~896 kbps avg, 0.20 bit/pixel
Аудио: 48 kHz, MPEG Layer 3, 2 ch, ~128.00 kbps avg








Общее
Полное имя : G:\ФИЛЬМЫ\Маленькие волшебницы.2020.WEB-DLRip.avi
Формат : AVI
Формат/Информация : Audio Video Interleave
Размер файла : 715 Мбайт
Продолжительность : 1 ч. 36 м.
Общий поток : 1 034 Кбит/сек
Программа кодирования : VirtualDubMod 1.5.10.3 | www.virtualdub-fr.org || (build 2550/release)
Библиотека кодирования : VirtualDubMod build 2550/release

Видео
Идентификатор : 0
Формат : MPEG-4 Visual
Профиль формата : Advanced Simple@L5
Настройки формата : BVOP2
Параметр BVOP формата : 2
Параметр QPel формата : Нет
Параметр GMC формата : Без точки перехода
Параметр матрицы формата : Default (MPEG)
Идентификатор кодека : XVID
Идентификатор кодека/Подсказка : XviD
Продолжительность : 1 ч. 36 м.
Битрейт : 896 Кбит/сек
Ширина : 672 пикселя
Высота : 280 пикселей
Соотношение сторон : 2,40:1
Частота кадров : 24,000 кадра/сек
Цветовое пространство : YUV
Субдискретизация насыщенности : 4:2:0
Битовая глубина : 8 бит
Тип развёртки : Прогрессивная
Метод сжатия : С потерями
Бит/(Пиксели*Кадры) : 0.198
Размер потока : 620 Мбайт (87%)
Библиотека кодирования : XviD 1.2.1 (UTC 2008-12-04)

Аудио
Идентификатор : 1
Формат : MPEG Audio
Версия формата : Version 1
Профиль формата : Layer 3
Настройки формата : Joint stereo
Идентификатор кодека : 55
Идентификатор кодека/Подсказка : MP3
Продолжительность : 1 ч. 36 м.
Вид битрейта : Постоянный
Битрейт : 128 Кбит/сек
Каналы : 2 канала
Частота : 48,0 КГц
Частота кадров : 41,667 кадра/сек (1152 SPF)
Метод сжатия : С потерями
Размер потока : 88,5 Мбайт (12%)
Выравнивание : Соединение по промежуткам
Продолжительность промежутка : 42 мс. (1,00 видеокадр)
Время предзагрузки промежутка : 504 мс.
Библиотека кодирования : LAME3.99r
Настройки программы : -m j -V 4 -q 2 -lowpass 17 -b 128

pb.wtf



Скачать Маленькие волшебницы через торрент https://pic1.kartinco.top/new/img/2021-02/22/ptip2vt7cg5w678hzlw43v9i8.jpg Скачать фильм Маленькие волшебницы через торрент бесплантно в хорошем качестве Описание: Четыре сестры Флейм, Флора, Марина и Скай живут с родителями в живописном фамильном замке. На первый взгляд это самые обычные ... 10 10 3
Торрент: Зарегистрирован [2021-02-22 14:11] · скачан: 9 раз
Статус: √ проверено
Размер: 715 MB
Как cкачать? Как скачать Маленькие волшебницы через торрент | UTorrent

% Раздел Тема Автор DL S | L
Фильмы 2019-2020 [DVDrip, WEB-DLRip, HDrip] (DUB, MVO) [ 1.45 GB ] Маленькие волшебницы / Sprite Sisters - Vier zauberhafte Schwestern [2020 WEB-DLRip-AVC] от MediaBit Lithuania Скачать
4 | 0

28-11-2019 20:33  

Отключить всю рекламу на сайте

    Дорогой пользователь! Огромная просьба, поблагодарите релизера, оцените раздачу и оставьте свои комментарий, если Вы скачали Маленькие волшебницы через торрент бесплатно! Внесите свою лепту в развитие PiratBit!
    Комментировать посты могут только пользователи прошедшие не сложную регистрацию
    Показать сообщения:    

    Маленькие волшебницы через торрент
    Скачать бесплатно Маленькие волшебницы
    Маленькие волшебницы скачать торрент
    Маленькие волшебницы смотреть онлайн
    Cкачать фильм Маленькие волшебницы бесплатно
    Маленькие волшебницы скачать торрент в хорошем качестве
    Маленькие волшебницы смотреть онлайн бесплатно в хорошем качестве


    Вы не можете начинать темы
    Вы не можете отвечать на сообщения
    Вы не можете редактировать свои сообщения
    Вы не можете удалять свои сообщения
    Вы не можете голосовать в опросах
    Вы не можете прикреплять файлы к сообщениям
    Вы можете скачивать файлы