2 сезон

iTunes

WEBRip

1

2 сезон

iTunes

1 сезон

1 сезон

RePack

30

Новинка

ВАЖНО

ИГРА 18+

pack

RePack

MK11
pack

Легкие деньги

RePack

jed

RePack

fifa19

RePack

RDR2

RePack

NEED FOR SPEED™ PAYBACK

4 сезон

9 сезон

Бесстыжие 9 сезон

Все сериалы

все сериалы на PB.wtf

RePack

FAR CRY 5

Anonymous, доброй ночи, мы не успеваем собрать деньги на оплату серверов за февраль, помогите нам пожалуйста в это трудное время. В качестве благодарности мы отключим Вам всю рекламу на сайте (укажите свой ник в строку Ваше имя)!

×
  
Magnet ссылка

Счастливо оставаться / Adieu les cons (Альбер Дюпонтель) [2020, Драма, комедия, WEB-DLRip-AVC] [DUB] [iTunes] от MediaBit pb.wtf

Счастливо оставаться через торрент pb.wtf

Раздают: 3 [ 0 KB/s ]
Размер: 1.45 GB | Добавлен: 9 д. назад | Торрент скачан:99 раз
Скачать  

22-02-2021 16:21 Счастливо оставаться Скачать торрент  


Счастливо оставаться / Adieu les cons
Информация о фильме:
Название: Счастливо оставаться
Оригинальное название: Adieu les cons
Год выхода: 2020
Жанр: Драма, комедия
Режиссер: Альбер Дюпонтель

В ролях: Виржини Эфира, Альбер Дюпонтель, Николя Марье, Жакки Берруайе, Филипп Юшан, Бастьен Угетто, Марилу Оссийу, Мишель Вюйермоз, Лоран Стокер, Киан Кожанди

Описание: Сюзи узнает, что смертельно больна. Времени осталось мало, и теперь наконец можно сделать то, что она давно хотела. Вместе с Джей Би, находящимся в состоянии полного выгорания и отсутствия интереса к жизни, и мистером Блином, наоборот, ослепленным энтузиазмом, они отправятся в длинное и увлекательное путешествие. Их ждет незабываемый и захватывающий квест, который будет невозможно забыть.



Страна: Франция
Студия: Manchester Films
Продолжительность: 01:27:08
Перевод: Дублированное - iTunes



Информация о файле:
Кодек: AVC
Формат: MKV
Качество: WEB-DLRip-AVC
Видео: MPEG-4 AVC, 1024x430, 24.000 fps, 2000kbps
Аудио RU: AC3, 6 ch, 48 kHz, 384 kbps
Субтитры: Нет
Навигация по главам: Да

General
Unique ID : 298775919913268969034490773413594087562 (0xE0C6262A41A02A3EFF4653736163408A)
Complete name : D:uTorrentРипы_от_wolf1245_MediaBitAdieu les cons.2020.DUB.iTunes.WEB-DLRip-AVC_wolf1245_MediaBit.mkv
Format : Matroska
Format version : Version 4
File size : 1.45 GiB
Duration : 1 h 27 min
Overall bit rate : 2 385 kb/s
Movie name : Adieu les cons.2020.DUB.iTunes.WEB-DLRip-AVC_wolf1245_MediaBit
Encoded date : UTC 2021-02-22 16:12:24
Writing application : mkvmerge v53.0.0 ('Fool's Gold') 64-bit
Writing library : libebml v1.4.1 + libmatroska v1.6.2
Video
ID : 1
Format : AVC
Format/Info : Advanced Video Codec
Format profile : High@L4.1
Format settings : CABAC / 12 Ref Frames
Format settings, CABAC : Yes
Format settings, Reference frames : 12 frames
Codec ID : V_MPEG4/ISO/AVC
Duration : 1 h 27 min
Bit rate : 2 000 kb/s
Width : 1 024 pixels
Height : 430 pixels
Display aspect ratio : 2.40:1
Frame rate mode : Constant
Frame rate : 24.000 FPS
Color space : YUV
Chroma subsampling : 4:2:0
Bit depth : 8 bits
Scan type : Progressive
Bits/(Pixel*Frame) : 0.189
Stream size : 1.22 GiB (84%)
Title : _wolf1245_MediaBit
Writing library : x264 core 157 r2958 57baac4
Encoding settings : cabac=1 / ref=12 / deblock=1:-3:-3 / analyse=0x3:0x133 / me=umh / subme=10 / psy=1 / psy_rd=1.05:0.03 / mixed_ref=1 / me_range=32 / chroma_me=1 / trellis=2 / 8x8dct=1 / cqm=0 / deadzone=21,11 / fast_pskip=1 / chroma_qp_offset=-3 / threads=10 / lookahead_threads=2 / sliced_threads=0 / nr=0 / decimate=1 / interlaced=0 / bluray_compat=0 / constrained_intra=0 / bframes=10 / b_pyramid=2 / b_adapt=2 / b_bias=0 / direct=3 / weightb=1 / open_gop=0 / weightp=2 / keyint=240 / keyint_min=24 / scenecut=40 / intra_refresh=0 / rc_lookahead=60 / rc=2pass / mbtree=1 / bitrate=2000 / ratetol=1.0 / qcomp=0.60 / qpmin=0 / qpmax=69 / qpstep=4 / cplxblur=20.0 / qblur=0.5 / vbv_maxrate=50000 / vbv_bufsize=62500 / nal_hrd=none / filler=0 / ip_ratio=1.40 / aq=1:0.80
Language : English
Default : Yes
Forced : No
Color range : Limited
Color primaries : BT.709
Transfer characteristics : BT.709
Matrix coefficients : BT.709
Audio
ID : 2
Format : AC-3
Format/Info : Audio Coding 3
Commercial name : Dolby Digital
Codec ID : A_AC3
Duration : 1 h 27 min
Bit rate mode : Constant
Bit rate : 384 kb/s
Channel(s) : 6 channels
Channel layout : L R C LFE Ls Rs
Sampling rate : 48.0 kHz
Frame rate : 31.250 FPS (1536 SPF)
Compression mode : Lossy
Stream size : 239 MiB (16%)
Title : DUB | (iTunes)
Language : Russian
Service kind : Complete Main
Default : Yes
Forced : No
Menu
00:00:00.000 : :Глава 1
00:08:34.957 : :Глава 2
00:16:36.041 : :Глава 3
00:25:14.124 : :Глава 4
00:33:51.374 : :Глава 5
00:42:17.999 : :Глава 6
00:50:30.957 : :Глава 7
00:59:24.915 : :Глава 8
01:07:37.290 : :Глава 9
01:15:44.915 : :Глава 10
Релиз от: &

Автор релиза:
pb.wtf



Скачать Счастливо оставаться через торрент https://i114.fastpic.ru/big/2021/0222/4c/206025293e0baac46223f2699b45674c.png Скачать фильм Счастливо оставаться через торрент бесплантно в хорошем качестве Описание: Сюзи узнает, что смертельно больна. Времени осталось мало, и теперь наконец можно сделать то, что она давно хотела. Вместе с ... 10 10 4
Торрент: Зарегистрирован [2021-02-22 16:21] · скачан: 99 раз
Статус: √ проверено
Размер: 1.45 GB
Как cкачать? Как скачать Счастливо оставаться через торрент | UTorrent

28-11-2019 20:33  

Отключить всю рекламу на сайте

    Дорогой пользователь! Огромная просьба, поблагодарите релизера, оцените раздачу и оставьте свои комментарий, если Вы скачали Счастливо оставаться через торрент бесплатно! Внесите свою лепту в развитие PiratBit!
    Комментировать посты могут только пользователи прошедшие не сложную регистрацию
    Показать сообщения:    

    Счастливо оставаться через торрент
    Скачать бесплатно Счастливо оставаться
    Счастливо оставаться скачать торрент
    Счастливо оставаться смотреть онлайн
    Cкачать фильм Счастливо оставаться бесплатно
    Счастливо оставаться скачать торрент в хорошем качестве
    Счастливо оставаться смотреть онлайн бесплатно в хорошем качестве


    Вы не можете начинать темы
    Вы не можете отвечать на сообщения
    Вы не можете редактировать свои сообщения
    Вы не можете удалять свои сообщения
    Вы не можете голосовать в опросах
    Вы не можете прикреплять файлы к сообщениям
    Вы можете скачивать файлы