2 сезон

iTunes

WEBRip

1

2 сезон

iTunes

1 сезон

1 сезон

RePack

30

Новинка

ВАЖНО

ИГРА 18+

pack

RePack

MK11
pack

Легкие деньги

RePack

jed

RePack

fifa19

RePack

RDR2

RePack

NEED FOR SPEED™ PAYBACK

4 сезон

9 сезон

Бесстыжие 9 сезон

Все сериалы

все сериалы на PB.wtf

RePack

FAR CRY 5

Anonymous, доброй ночи, мы не успеваем собрать деньги на оплату серверов за февраль, помогите нам пожалуйста в это трудное время. В качестве благодарности мы отключим Вам всю рекламу на сайте (укажите свой ник в строку Ваше имя)!

×
  
Magnet ссылка

Огонь (Алексей Нужный) [2020, Драма, приключения, WEB-DL 720p] [iTunes] pb.wtf

Огонь через торрент pb.wtf

Раздают: 32 [ 215 KB/s ]
Размер: 4.03 GB | Добавлен: 9 д. назад | Торрент скачан:583 раза
Скачать  

22-02-2021 20:07 Огонь Скачать торрент  

Огонь Год выхода: 2020
Жанр: Драма, приключения
Страна: Россия
Продолжительность: 02:11:43
Перевод: Не требуется

Режиссер: Алексей Нужный

В ролях: Константин Хабенский, Иван Янковский, Стася Милославская, Антон Богданов, Виктор Добронравов, Роман Курцын, Тихон Жизневский, Ирина Горбачева, Евгения Дмитриева, Юрий Кузнецов и др.

О фильме: Героическая история о пожарных и спасателях. То, что обычно называют подвигом, для них — привычные будни, если только можно привыкнуть к смертельной опасности и предельному риску. Когда людям, попавшим в беду, кажется, что помощи ждать неоткуда, на выручку приходят спасатели, чтобы встать на пути беспощадной стихии.

rating

скриншот  

Качество: WEB-DL 720p
Формат: MKV
Видео: MPEG-4 AVC, 1280x532, 3990 kbps, 24,000 fps
Звук: русский, AC3, 5.1 ch, 48 kHz, 384 kbps
Субтитры: нет
General
Unique ID : 209282309338864430932571990166737305542 (0x9D724E7FDE6A1AB2B2E669ACF834BFC6)
Complete name : F:\Ogon.2020.WEB-DL.720p.ELEKTRI4KA.UNIONGANG.mkv
Format : Matroska
Format version : Version 4 / Version 2
File size : 4.03 GiB
Duration : 2h 11mn
Overall bit rate : 4 376 Kbps
Movie name : Ogon.2020.WEB-DL.720p.ELEKTRI4KA.UNIONGANG.
Encoded date : UTC 2021-02-22 19:38:41
Writing application : mkvmerge v8.3.0 ('Over the Horizon') 64bit
Writing library : libebml v1.3.1 + libmatroska v1.4.2

Video
ID : 1
Format : AVC
Format/Info : Advanced Video Codec
Format profile : Main@L3.1
Format settings, CABAC : No
Format settings, ReFrames : 2 frames
Codec ID : V_MPEG4/ISO/AVC
Duration : 2h 11mn
Bit rate : 3 905 Kbps
Width : 1 280 pixels
Height : 532 pixels
Display aspect ratio : 2.40:1
Frame rate mode : Constant
Frame rate : 24.000 fps
Color space : YUV
Chroma subsampling : 4:2:0
Bit depth : 8 bits
Scan type : Progressive
Bits/(Pixel*Frame) : 0.239
Stream size : 3.59 GiB (89%)
Language : English
Default : Yes
Forced : No
Color range : Limited
Color primaries : BT.709
Transfer characteristics : BT.709
Matrix coefficients : BT.709

Audio
ID : 2
Format : AC-3
Format/Info : Audio Coding 3
Mode extension : CM (complete main)
Format settings, Endianness : Big
Codec ID : A_AC3
Duration : 2h 11mn
Bit rate mode : Constant
Bit rate : 384 Kbps
Channel(s) : 6 channels
Channel positions : Front: L C R, Side: L R, LFE
Sampling rate : 48.0 KHz
Compression mode : Lossy
Stream size : 362 MiB (9%)
Language : Russian
Default : Yes
Forced : No

Menu
00:00:00.000 : ru:Глава 1
00:04:37.083 : ru:Глава 2
00:10:44.124 : ru:Глава 3
00:18:59.124 : ru:Глава 4
00:24:58.832 : ru:Глава 5
00:29:49.540 : ru:Глава 6
00:38:08.998 : ru:Глава 7
00:48:28.206 : ru:Глава 8
00:53:17.956 : ru:Глава 9
01:00:08.414 : ru:Глава 10
01:07:34.872 : ru:Глава 11
01:14:45.080 : ru:Глава 12
01:22:05.496 : ru:Глава 13
01:34:41.996 : ru:Глава 14
01:50:36.162 : ru:Глава 15
01:55:21.995 : ru:Глава 16
скриншот  скриншот  скриншот  
pb.wtf



Скачать Огонь через торрент https://i4.imageban.ru/out/2021/02/22/e8db32ad76877bcce7d7479442e89935.png Скачать фильм Огонь через торрент бесплантно в хорошем качестве О фильме: Героическая история о пожарных и спасателях. То, что обычно называют подвигом, для них — привычные будни, если только можно ... 10 10 14
Info! Золотая раздача, скачанное не засчитывается.
Торрент: Зарегистрирован [2021-02-22 20:07] · скачан: 583 раз
Статус: √ проверено
Размер: 4.03 GB
Как cкачать? Как скачать Огонь через торрент | UTorrent

% Раздел Тема Автор DL S | L
Фантастика [ 1.01 GB ] Наталия Осояну - Дети Великого шторма 2. Звездный огонь [Солонинкина Татьяна 2020 128 kbps MP3] bober100 Скачать
1 | 0
Фильмы (HD 720p, 1080p) (48-60 fps) [ 4.3 GB ] Огонь из преисподней / Fire Down Below [1997 WEB-DLRip 720p / 60 FPS ] от R.G. HD-Films slaventi-69 Скачать
1 | 0
Наши фильмы 2018-2019 [ 1.46 GB ] Внутренний огонь [2020 WEB-DLRip] bober100 Скачать
2 | 1
Фильмы 2019-2020 [DVDrip, WEB-DLRip, HDrip] (DUB, MVO) [ 745 MB ] Внутренний огонь [2020 WEB-DLRip] bober100 Скачать
1 | 0
Наши фильмы (HD, WEB-DL 720p, 1080p) [ 3.36 GB ] Внутренний огонь [2020 WEB-DL 1080p] bober100 Скачать
5 | 0
Кино СССР [ 4.37 GB ] Вызываем огонь на себя [1964 СССР военный SATRip-AVC от AVP Studio] AVP Studio Скачать
1 | 1
Кино СССР [ 4.37 GB ] Вызываем огонь на себя [1964 СССР военный SATRip от AVP Studio] AVP Studio Скачать
1 | 0

28-11-2019 20:33  

Отключить всю рекламу на сайте

23-02-2021 21:22 Огонь Скачать торрент  

Офигительный фильм ...pb.wtf



25-02-2021 06:44 Огонь Скачать торрент  

CTEHbKA писал(а):

Офигительный фильм ...

Дело храбрых посмотриpb.wtf



28-02-2021 09:42 Огонь Скачать торрент  

эд76 писал(а):

CTEHbKA писал(а):

Офигительный фильм ...

Дело храбрых посмотри

Так и думал что всё слизано с этого фильма.pb.wtf



    Дорогой пользователь! Огромная просьба, поблагодарите релизера, оцените раздачу и оставьте свои комментарий, если Вы скачали Огонь через торрент бесплатно! Внесите свою лепту в развитие PiratBit!
    Комментировать посты могут только пользователи прошедшие не сложную регистрацию
    Показать сообщения:    

    Огонь через торрент
    Скачать бесплатно Огонь
    Огонь скачать торрент
    Огонь смотреть онлайн
    Cкачать фильм Огонь бесплатно
    Огонь скачать торрент в хорошем качестве
    Огонь смотреть онлайн бесплатно в хорошем качестве


    Вы не можете начинать темы
    Вы не можете отвечать на сообщения
    Вы не можете редактировать свои сообщения
    Вы не можете удалять свои сообщения
    Вы не можете голосовать в опросах
    Вы не можете прикреплять файлы к сообщениям
    Вы можете скачивать файлы