2 сезон

iTunes

WEBRip

1

2 сезон

iTunes

1 сезон

1 сезон

RePack

30

Новинка

ВАЖНО

ИГРА 18+

pack

RePack

MK11
pack

Легкие деньги

RePack

jed

RePack

fifa19

RePack

RDR2

RePack

NEED FOR SPEED™ PAYBACK

4 сезон

9 сезон

Бесстыжие 9 сезон

Все сериалы

все сериалы на PB.wtf

RePack

FAR CRY 5

Anonymous, добрый вечер, мы не успеваем собрать деньги на оплату серверов за февраль, помогите нам пожалуйста в это трудное время. В качестве благодарности мы отключим Вам всю рекламу на сайте (укажите свой ник в строку Ваше имя)!

×
  
Magnet ссылка

Страшные истории в двух предложениях / Two Sentence Horror Stories / Сезон: 1 / Серии 1-5 из 5 (Рания Аттих, Дэниэл Гарсиа, Вера Миао, Наталия Юдин, Таяриша По) [2019, США, Ужасы, WEB-DLRip-AVC] MVO [LostFilm] pb.wtf

Страшные истории в двух предложениях через торрент pb.wtf

Раздают: 5 [ 0 KB/s ]
Размер: 1.12 GB | Добавлен: 8 д. назад | Торрент скачан:14 раз
Скачать  

23-02-2021 02:48 Страшные истории в двух предложениях Скачать торрент  

Страшные истории в двух предложениях / Two Sentence Horror Stories


  • Год выпуска: 2019
  • Страна: США
  • Жанр: Ужасы
  • Продолжительность: ~ 00:15:00 (Серия)
  • Перевод: Профессиональный многоголосый [LostFilm]
  • Режиссер: Рания Аттих, Дэниэл Гарсиа, Вера Миао, Наталия Юдин, Таяриша По
  • В ролях:
    Кристофер Шайер, Джим Пэррак, Николь Кан, Тара Пачеко, Сатия Сридхаран, Дженни Бэйкон, Вэй Чинг Хо, Грета Куиспе, Дилан Фергус и др.
    Описание:


    Визуальные новеллы, из которых состоит шоу, переосмысляют не только страшилки в два предложения, но и современные тенденции, политическую и социальную обстановку, а также влияние технологий на нашу жизнь. Вот в повествовании появляется маньяк-психопат, который, скрываясь за образом хорошего парня, убивает матерей-одиночек. Не спешите строить догадки по поводу дальнейшего развития сюжета — вашим ожиданиям все равно предстоит разбиться вдребезги, ведь жуткие секреты есть не только у серийных убийц… Не страшно? А что если однажды утром, проснувшись после веселого новогоднего корпоратива, вы обнаружите, что мурашки по вашей коже бегут от того, что внутри вас есть кто-то другой? Среди эпизодов встречаются и более классические истории о призраках, злобных детишках и промывании мозгов, сдобренные обескураживающими сюжетными твистами — в этой хоррор-антологии найдутся страшилки на любой вкус.
  • Рейтинг:

    rating


  • Качество: WEB-DLRip-AVC
  • Формат: :MKV
  • Видео кодек: AVC
  • Аудио кодек: AC3
  • Видео: 1458 Кбит/сек, 1024*426 (2,2:1), в 23,976 (24000/1001) кадра/сек, AVC
  • Аудио №1: русский 384 Кбит/сек, 48,0 КГц, 16 бит, 2 канала, AC-3|[LostFilm]|
  • Аудио №2: английский 384 Кбит/сек, 48,0 КГц, 16 бит, 2 канала, AC-3
    «Страшные истории в двух предложениях» — это динамичная хоррор-антология Vera_Miao/Веры Миао для телеканала The CW, которая вдохновлена особым жанром онлайн-творчества, процветающим на страницах веб-форумов. В общем-то, все что нужно знать о сериале, скрывается в самом его названии: «Страшные истории» стали первым проектом, перенесшим короткие крипипасты, которыми пугают друг друга обитатели сайта Reddit, на экраны. Вместо дотошно выстроенного мира, прописанного сюжета и глубоких персонажей в каждом новом эпизоде любителей ужасов ожидает хлесткая история, которая, начинаясь с затравки в пару слов, уже через 20 минут наносит сокрушительный удар по нервам зрителя заключительным предложением. Шоураннер проекта, разделившая режиссерское кресло с Kimani_Ray_Smith/Кимани Смитом («Van_Helsing/Ван Хельсинг»), Ryan_Spindell/Райаном Шпинделом («50_States_of_Fright/50 штатов страха») и Bola_Ogun/Болой Огун («Siren/Сирена»), замешала обыденное и сверхъестественное, технологии и хтоническую жуть, злободневность и примитивный страх человека перед неизвестным в экстремальный коктейль, который буквально выталкивает зрителя из зоны комфорта, без стеснения обнажая присущие любому человеку фобии на малых экранах.
    Внимание! Раздача ведётся путём добавления новых серий; при каждом добавлении создаётся новый торрент. Чтобы начать докачку новой серии, пользователям необходимо сделать следующее:
    (1) остановить скачивание,
    (2) удалить старый торрент у себя из клиента (старые серии удалять не надо),
    (3) скачать новый торрент и запустить его у себя в клиенте вместо старого, при этом указать клиенту путь в старую папку куда и должно происходить скачивание новых серий.

    Ваш клиент при этом должен произвести хеширование (проверку) старой папки (если не производит сам - помогите ему сделать это), и будет докачивать только те серии которых у вас ещё нет. Старые серии при этом не удаляются, а продолжают раздаваться!

    Eсли вы уже удалили старые серии, то предотвратить повторную закачку старых серий можно, отжав галочку в соответствующих местах при запуске нового торрента. По возможности, желательно не удалять старые серии как можно дольше чтобы релизёр не столько продолжал раздавать старые серии, а смог сконцентрироваться на новых.
    Общее
    Уникальный идентификатор : 143904348919082495664025030685225293320 (0x6C42F82F41BB48E3F6DE8F4B9A169608)
    Полное имя : I:\Страшные истории в двух предложениях (Two Sentence Horror Stories) Сезон 1 LostFilm\Two.Sentence.Horror.Stories.S01E01.(Мама).WEB-DLRip-AVC.LostFilm.mkv
    Формат : Matroska
    Версия формата : Version 4
    Размер файла : 233 Мбайт
    Продолжительность : 14 м. 20 с.
    Общий поток : 2271 Кбит/сек
    Программа кодирования : XviD4PSP 8.0.59
    Библиотека кодирования : Lavf58.20.100
    ErrorDetectionType : Per level 1
    ENCODING_INFO : MATROSKA,WEBM > MKV Пользовательский

    Видео
    Идентификатор : 1
    Формат : AVC
    Формат/Информация : Advanced Video Codec
    Профиль формата : High@L3.1
    Настройки формата : CABAC / 4 Ref Frames
    Параметр CABAC формата : Да
    Параметр RefFrames формата : 4 кадра
    Идентификатор кодека : V_MPEG4/ISO/AVC
    Продолжительность : 14 м. 20 с.
    Битрейт : 1458 Кбит/сек
    Номинальный битрейт : 1800 Кбит/сек
    Ширина : 1024 пикселя
    Высота : 476 пикселей
    Соотношение сторон : 2,2:1
    Режим частоты кадров : Постоянный
    Частота кадров : 23,976 (24000/1001) кадра/сек
    Цветовое пространство : YUV
    Субдискретизация насыщенности : 4:2:0
    Битовая глубина : 8 бит
    Тип развёртки : Прогрессивная
    Бит/(Пиксели*Кадры) : 0.125
    Размер потока : 150 Мбайт (64%)
    Библиотека кодирования : x264 core 157 r2969 d4099dd
    Настройки программы : cabac=1 / ref=3 / deblock=1:-1:-1 / analyse=0x3:0x133 / me=hex / subme=7 / psy=1 / psy_rd=1.00:0.20 / mixed_ref=1 / me_range=16 / chroma_me=1 / trellis=1 / 8x8dct=1 / cqm=0 / deadzone=21,11 / fast_pskip=1 / chroma_qp_offset=-3 / threads=9 / lookahead_threads=1 / sliced_threads=0 / nr=0 / decimate=1 / interlaced=0 / bluray_compat=0 / constrained_intra=0 / bframes=3 / b_pyramid=2 / b_adapt=2 / b_bias=0 / direct=3 / weightb=1 / open_gop=0 / weightp=2 / keyint=240 / keyint_min=24 / scenecut=40 / intra_refresh=0 / rc_lookahead=40 / rc=cbr / mbtree=1 / bitrate=1800 / ratetol=1.0 / qcomp=0.60 / qpmin=0 / qpmax=69 / qpstep=4 / vbv_maxrate=1800 / vbv_bufsize=1285 / nal_hrd=none / filler=0 / ip_ratio=1.40 / aq=1:1.00
    Default : Да
    Forced : Нет
    ENCODING_INFO : H264 > X264 CBR 1800kbps HQ

    Аудио #1
    Идентификатор : 2
    Формат : AC-3
    Формат/Информация : Audio Coding 3
    Коммерческое название : Dolby Digital
    Идентификатор кодека : A_AC3
    Продолжительность : 14 м. 20 с.
    Вид битрейта : Постоянный
    Битрейт : 384 Кбит/сек
    Каналы : 2 канала
    ChannelLayout : L R
    Частота : 48,0 КГц
    Частота кадров : 31,250 кадров/сек (1536 SPF)
    Битовая глубина : 16 бит
    Метод сжатия : С потерями
    Размер потока : 39,4 Мбайт (17%)
    ServiceKind/String : Complete Main
    Default : Да
    Forced : Нет
    ENCODING_INFO : AC3 > AC3 CBR 384kbps

    Аудио #2
    Идентификатор : 3
    Формат : AC-3
    Формат/Информация : Audio Coding 3
    Коммерческое название : Dolby Digital
    Идентификатор кодека : A_AC3
    Продолжительность : 14 м. 20 с.
    Вид битрейта : Постоянный
    Битрейт : 384 Кбит/сек
    Каналы : 2 канала
    ChannelLayout : L R
    Частота : 48,0 КГц
    Частота кадров : 31,250 кадров/сек (1536 SPF)
    Битовая глубина : 16 бит
    Метод сжатия : С потерями
    Размер потока : 39,4 Мбайт (17%)
    ServiceKind/String : Complete Main
    Default : Нет
    Forced : Нет
    ENCODING_INFO : AC3 > AC3 CBR 384kbps



    Скриншоты:
    скриншот   скриншот   скриншот    скриншот   скриншот   скриншот   скриншот  скриншот  
    pb.wtf



  • Скачать Страшные истории в двух предложениях через торрент https://pic1.kartinco.top/new/img/2021-02/23/fajvkf6e5ay4kny8yuls4qhcf.jpg Скачать фильм Страшные истории в двух предложениях через торрент бесплантно в хорошем качестве Описание: Визуальные новеллы, из которых состоит шоу, переосмысляют не только страшилки в два предложения, но и современные тенденции, ... 5 10 1
    Торрент: Зарегистрирован [2021-02-28 08:04] · скачан: 14 раз
    Статус: √ проверено
    Размер: 1.12 GB
    Как cкачать? Как скачать Страшные истории в двух предложениях через торрент | UTorrent

    28-11-2019 20:33  

    Отключить всю рекламу на сайте

      Дорогой пользователь! Огромная просьба, поблагодарите релизера, оцените раздачу и оставьте свои комментарий, если Вы скачали Страшные истории в двух предложениях через торрент бесплатно! Внесите свою лепту в развитие PiratBit!
      Комментировать посты могут только пользователи прошедшие не сложную регистрацию
      Показать сообщения:    

      Страшные истории в двух предложениях через торрент
      Скачать бесплатно Страшные истории в двух предложениях
      Страшные истории в двух предложениях скачать торрент
      Страшные истории в двух предложениях смотреть онлайн
      Cкачать фильм Страшные истории в двух предложениях бесплатно
      Страшные истории в двух предложениях скачать торрент в хорошем качестве
      Страшные истории в двух предложениях смотреть онлайн бесплатно в хорошем качестве


      Вы не можете начинать темы
      Вы не можете отвечать на сообщения
      Вы не можете редактировать свои сообщения
      Вы не можете удалять свои сообщения
      Вы не можете голосовать в опросах
      Вы не можете прикреплять файлы к сообщениям
      Вы можете скачивать файлы