2 сезон

iTunes

WEBRip

1

2 сезон

iTunes

1 сезон

1 сезон

RePack

30

Ultimate

ВАЖНО

ИГРА 18+

pack

RePack

MK11
pack

Легкие деньги

RePack

jed

RePack

fifa19

RePack

RDR2

RePack

NEED FOR SPEED™ PAYBACK

4 сезон

9 сезон

Бесстыжие 9 сезон

Все сериалы

все сериалы на PB.wtf

RePack

FAR CRY 5

Anonymous, доброе утро, мы не успеваем собрать деньги на оплату серверов за февраль, помогите нам пожалуйста в это трудное время. В качестве благодарности мы отключим Вам всю рекламу на сайте (укажите свой ник в строку Ваше имя)!

×
  
Magnet ссылка

Последний Вермеер / The Last Vermeer (Дэн Фридкин) [2019, Драма, WEB-DL 1080p] [MVO] [iTunes] pb.wtf

Последний Вермеер через торрент pb.wtf

Раздают: 11 [ 134 KB/s ]
Размер: 4.68 GB | Добавлен: 5 д. назад | Торрент скачан:45 раз
Скачать  

23-02-2021 07:50 Последний Вермеер Скачать торрент  

Последний Вермеер / The Last Vermeer Год выхода: 2019
Жанр: Драма
Страна: США
Студия: Imperative Entertainment, NL Film
Продолжительность: 01:57:45
Перевод: Профессиональный (многоголосый) | iTunes

Режиссер: Дэн Фридкин

В ролях: Клас Банг, Гай Пирс, Мария Бах Хансен, Роланд Мюллер, Аугуст Диль, Оливия Грант, Сюзанна Дойл, Эдриан Скарборо, Даан Ауфенакер, Мэтт Джонс

О фильме: В центре сюжета бывший участник нидерландского движения Сопротивления Джозеф Пиллер (Клас Банг), который расследует дело художника-авантюриста Хана ван Меегерена (Гай Пирс). Последнего обвиняют в коллаборационизме и продаже нацистам значительного количества произведений искусства, в том числе одну из картин Яна Вермеера, выдающегося нидерландского художника семнадцатого века. Нацисты так хотели заполучить шедевр, что согласились обменять его на двести полотен старинных голландских мастеров, вывезенных из страны. Когда судебное разбирательство принимает серьезные обороты и начинает угрожать жизни художника, ван Меегерен прибегает к своему последнему оружию — правде — и признается, что все проданные картины его собственной руки, а сам художник — мастер фальсификации, сделавший состояние на подделках. Кем же является ван Меегерен — преступником или художником, пожертвовавшим своей репутацией ради спасения национального достояния?

rating

Качество: WEB-DL 1080p
Формат: MKV
Видео: MPEG-4 AVC, 1920x1036, 4914 Kbit/s, 23.976 fps
Аудио #01: 48 kHz, AC3, 5.1, 384 Kbps | iTunes | RUS |
Аудио #02: 48 kHz, AC3, 5.1, 384 Kbps | Оригинал | ENG |
Субтитры: Русские (Full), украинские (Full), английские
скриншот  скриншот  скриншот  
General

Unique ID : 71240160295413126611831478392870665973 (0x35985B156B6FB608A259222190E3FEF5)

Complete name : D:VideoThe.Last.Vermeer.2019.WEB-DL.1080p.seleZen.mkv

Format : Matroska

Format version : Version 4

File size : 4.68 GiB

Duration : 1 h 57 min

Overall bit rate : 5 684 kb/s

Movie name : The Last Vermeer 2019 from seleZen

Encoded date : UTC 2021-02-22 22:39:14

Writing application : mkvmerge v52.0.0 ('Secret For The Mad') 64-bit

Writing library : libebml v1.4.1 + libmatroska v1.6.2

Video

ID : 1

Format : AVC

Format/Info : Advanced Video Codec

Format profile : High@L4

Format settings : CABAC / 4 Ref Frames

Format settings, CABAC : Yes

Format settings, Reference : 4 frames

Format settings, GOP : M=1, N=2

Codec ID : V_MPEG4/ISO/AVC

Duration : 1 h 57 min

Bit rate : 4 914 kb/s

Width : 1 920 pixels

Height : 1 036 pixels

Display aspect ratio : 1.85:1

Frame rate mode : Constant

Frame rate : 23.976 FPS

Color space : YUV

Chroma subsampling : 4:2:0

Bit depth : 8 bits

Scan type : Progressive

Bits/(Pixel*Frame) : 0.103

Stream size : 4.04 GiB (86%)

Language : English

Default : Yes

Forced : No

Color range : Limited

Color primaries : BT.709

Transfer characteristics : BT.709

Matrix coefficients : BT.709

Audio #1

ID : 2

Format : AC-3

Format/Info : Audio Coding 3

Commercial name : Dolby Digital

Codec ID : A_AC3

Duration : 1 h 57 min

Bit rate mode : Constant

Bit rate : 384 kb/s

Channel(s) : 6 channels

Channel layout : L R C LFE Ls Rs

Sampling rate : 48.0 kHz

Frame rate : 31.250 FPS (1536 SPF)

Compression mode : Lossy

Stream size : 323 MiB (7%)

Title : iTunes

Language : Russian

Service kind : Complete Main

Default : Yes

Forced : Yes

Audio #2

ID : 3

Format : AC-3

Format/Info : Audio Coding 3

Commercial name : Dolby Digital

Codec ID : A_AC3

Duration : 1 h 57 min

Bit rate mode : Constant

Bit rate : 384 kb/s

Channel(s) : 6 channels

Channel layout : L R C LFE Ls Rs

Sampling rate : 48.0 kHz

Frame rate : 31.250 FPS (1536 SPF)

Compression mode : Lossy

Stream size : 323 MiB (7%)

Title : Original

Language : English

Service kind : Complete Main

Default : No

Forced : No

Text #1

ID : 4

Format : UTF-8

Codec ID : S_TEXT/UTF8

Codec ID/Info : UTF-8 Plain Text

Duration : 1 h 57 min

Bit rate : 87 b/s

Count of elements : 1300

Stream size : 75.3 KiB (0%)

Title : Full

Language : Russian

Default : No

Forced : No

Text #2

ID : 5

Format : UTF-8

Codec ID : S_TEXT/UTF8

Codec ID/Info : UTF-8 Plain Text

Duration : 1 h 57 min

Bit rate : 84 b/s

Count of elements : 1299

Stream size : 72.8 KiB (0%)

Title : Full

Language : Ukrainian

Default : No

Forced : No

Text #3

ID : 6

Format : UTF-8

Codec ID : S_TEXT/UTF8

Codec ID/Info : UTF-8 Plain Text

Duration : 1 h 55 min

Bit rate : 58 b/s

Count of elements : 1581

Stream size : 49.7 KiB (0%)

Title : SDH

Language : English

Default : No

Forced : No

Menu

00:00:00.000 : en:1

00:07:45.715 : en:2

00:13:07.161 : en:3

00:21:07.641 : en:4

00:28:54.065 : en:5

00:35:02.682 : en:6

00:41:33.613 : en:7

00:47:56.245 : en:8

00:55:35.828 : en:9

01:04:40.956 : en:10

01:11:34.159 : en:11

01:20:35.157 : en:12

01:25:03.048 : en:13

01:32:31.078 : en:14

01:38:01.450 : en:15

01:46:42.679 : en:16
Релиз:

pb.wtf



Скачать Последний Вермеер через торрент https://b.radikal.ru/b39/2102/24/364a919a7e86.jpg Скачать фильм Последний Вермеер через торрент бесплантно в хорошем качестве О фильме: В центре сюжета бывший участник нидерландского движения Сопротивления Джозеф Пиллер (Клас Банг), который расследует дело ... 10 10 2
Торрент: Зарегистрирован [2021-02-23 07:50] · скачан: 45 раз
Статус: √ проверено
Размер: 4.68 GB
Как cкачать? Как скачать Последний Вермеер через торрент | UTorrent

% Раздел Тема Автор DL S | L
Фильмы 2019-2020 [DVDrip, WEB-DLRip, HDrip] (DUB, MVO) [ 2.05 GB ] Последний Вермеер / The Last Vermeer [2019 WEB-DLRip-AVC] [MVO] от MediaBit Lithuania Скачать
8 | 0
Фильмы 2019-2020 [DVDrip, WEB-DLRip, HDrip] (DUB, MVO) [ 2.19 GB ] Последний Вермеер / The Last Vermeer [2019 WEB-DLRip] [MVO] killermax2013 Скачать
7 | 0

28-11-2019 20:33  

Отключить всю рекламу на сайте


    Дорогой пользователь! Огромная просьба, поблагодарите релизера, оцените раздачу и оставьте свои комментарий, если Вы скачали Последний Вермеер через торрент бесплатно! Внесите свою лепту в развитие PiratBit!
    Комментировать посты могут только пользователи прошедшие не сложную регистрацию
    Показать сообщения:    

    Последний Вермеер через торрент
    Скачать бесплатно Последний Вермеер
    Последний Вермеер скачать торрент
    Последний Вермеер смотреть онлайн
    Cкачать фильм Последний Вермеер бесплатно
    Последний Вермеер скачать торрент в хорошем качестве
    Последний Вермеер смотреть онлайн бесплатно в хорошем качестве


    Вы не можете начинать темы
    Вы не можете отвечать на сообщения
    Вы не можете редактировать свои сообщения
    Вы не можете удалять свои сообщения
    Вы не можете голосовать в опросах
    Вы не можете прикреплять файлы к сообщениям
    Вы можете скачивать файлы