2 сезон

iTunes

WEBRip

1

2 сезон

iTunes

1 сезон

1 сезон

RePack

30

Новинка

ВАЖНО

ИГРА 18+

pack

RePack

MK11
pack

Легкие деньги

RePack

jed

RePack

fifa19

RePack

RDR2

RePack

NEED FOR SPEED™ PAYBACK

4 сезон

9 сезон

Бесстыжие 9 сезон

Все сериалы

все сериалы на PB.wtf

RePack

FAR CRY 5

Anonymous, доброе утро, мы не успеваем собрать деньги на оплату серверов за февраль, помогите нам пожалуйста в это трудное время. В качестве благодарности мы отключим Вам всю рекламу на сайте (укажите свой ник в строку Ваше имя)!

×
  
Magnet ссылка

Ромео + Джульетта / Romeo + Juliet (Баз Лурман) [1996, Драма, мелодрама, боевик, триллер, экранизация, BDRip (HEVC)1080p] [DUB] + 2x[MVO] + [DVO] + 2x[AVO] + 2x[Ukr] (DVO, MVO) pb.wtf

Ромео + Джульетта через торрент pb.wtf

Раздают: 10 [ 0.1 KB/s ]
Размер: 5.21 GB | Добавлен: 5 д. назад | Торрент скачан:30 раз
Скачать  

23-02-2021 09:30 Ромео + Джульетта Скачать торрент  

Ромео + Джульетта / Romeo + Juliet


Год выпуска: 1996
Страна: США
Жанр: Драма, мелодрама, боевик, триллер, экранизация
Продолжительность: 02:00:10
Перевод #1: Профессиональный (дублированный)
Перевод #2: Профессиональный (многоголосый закадровый) - Премьер Видео
Перевод #3: Профессиональный (многоголосый закадровый) - Позитив-Мультимедиа
Перевод #4: Профессиональный (двухголосый закадровый) - Гланц&Королева
Перевод #5: Авторский (одноголосый закадровый) - Живов
Перевод #6: Авторский (одноголосый закадровый) - Кашкин
Перевод #7: Украинский |Двухголосый закадровый, Новый Канал|
Перевод #8: Украинский |Многоголосый закадровый, ТЕТ|
Субтитры: русские, украинские, английские

Режиссер: Баз Лурман / Baz Luhrmann

В ролях: Леонардо ДиКаприо, Клер Дэйнс, Джон Легуизамо, Хэролд Перрино, Пит Постлетуэйт, Пол Сорвино, Брайан Деннехи, Пол Радд, Вонди Куртис-Холл, Мириам Маргулис, Джесси Брэдфорд, Зак Орт, Джейми Кеннеди, Дэш Майок, Винсент Лареска, Карлос Мартин Мэнзо Оталора, Кристина Пиклз, Дайан Венора, Педро Альтамирано, Джон Стерлини, Харриет Сэнсом Харрис, Майкл Корбетт, Эдвина Мур, Куиндон Тервер, Хорхе Абрахам, Фаусто Барона, Рикардо Барона, Каталина Ботелло, Марио Симарро, Фарнесио де Берналь, Дез’ри, Исмаэль Эгуйярте, Родриго Эскандон, Пако Морайта, Алекс Ньюман, Кори Ньюман, Люпита Очоа, Глория Силва, Кэролин Валеро, Маргарита

Описание: Весьма вольная и смелая интерпретация великой пьесы У. Шекспира, на современный лад и манер! Верона стала огромным мегаполисом, Мантеги и Капулетти из дворянских кланов превратились в мафиозные, битвы на мечах теперь заменены уличными перестрелками. Но Ромео и Джульетта так и остались подростками, а божественные строки У. Шекспира теперь звучат из уст уличных боевиков и наркоманов. Времена меняются, люди меняются, жизнь меняется, а истинная любовь - вечна.
rating


Качество видео: BDRip (HEVC) 1080p
Формат: MKV
Видео кодек: x.265
Аудио кодек: AC3
Видео: HEVC/H.265, 1920x800, 23,976 fps, ~3584 Kbps, 10 bit
Аудио #1: 48 kHz, AC3, 6 ch, ~384.00 kbps avg |Профессиональный (полное дублирование)|
Аудио #2: 48 kHz, AC3, 2 ch, ~192.00 kbps avg |Профессиональный, многоголосый, Премьер Видео|
Аудио #3: 48 kHz, AC3, 6 ch, ~384.00 kbps avg |Профессиональный, многоголосый, Позитив-Мультимедиа|
Аудио #4: 48 kHz, AC3, 6 ch, ~384.00 kbps avg |Профессиональный, двухголосый, Гланц&Королева|
Аудио #5: 48 kHz, AC3, 6 ch, ~384.00 kbps avg |Авторский, одноголосый - Живов|
Аудио #6: 48 kHz, AC3, 2 ch, ~192.00 kbps avg |Авторский, одноголосый - Кашкин|
Аудио #7: 48 kHz, AC3, 6 ch, ~384.00 kbps avg Украинский |Двухголосый закадровый, Новый Канал|
Аудио #8: 48 kHz, AC3, 2 ch, ~192.00 kbps avg Украинский |Многоголосый закадровый, ТЕТ|
General
Unique ID : 241560814147753541248602342526508775582 (0xB5BAEBA83B7AD91AAE37F93F0FAAB89E)
Complete name : F:\фото корпус\Romeo + Juliet.1996.BDRip (HEVC)1080p.[DUB], 2X[MVO], 2x[AVO], 2x[Ukr].xz.mkv
Format : Matroska
Format version : Version 4 / Version 2
File size : 5.21 GiB
Duration : 2h 0mn
Overall bit rate : 6 204 Kbps
Movie name : Romeo + Juliet.1996.BDRip (HEVC)1080p.[DUB], 2X[MVO], 2x[AVO], 2x[Ukr].xz
Encoded date : UTC 2021-02-23 08:49:12
Writing application : mkvmerge v6.1.0 ('Old Devil') built on Mar 2 2013 14:32:37
Writing library : libebml v1.3.0 + libmatroska v1.4.0
Attachements : cover.jpg
DURATION : 01:59:36.116000000
NUMBER_OF_FRAMES : 1157
NUMBER_OF_BYTES : 7218189
_STATISTICS_WRITING_APP : mkvmerge v52.0.0 ('Secret For The Mad') 64-bit
_STATISTICS_WRITING_DATE_UTC : 2021-02-13 18:58:10
_STATISTICS_TAGS : BPS DURATION NUMBER_OF_FRAMES NUMBER_OF_BYTES

Video
ID : 1
Format : HEVC
Format/Info : High Efficiency Video Coding
Format profile : Main 10@L4@Main
Codec ID : V_MPEGH/ISO/HEVC
Duration : 2h 0mn
Bit rate : 3 584 Kbps
Width : 1 920 pixels
Height : 800 pixels
Display aspect ratio : 2.40:1
Frame rate mode : Constant
Frame rate : 23.976 fps
Color space : YUV
Chroma subsampling : 4:2:0
Bit depth : 10 bits
Bits/(Pixel*Frame) : 0.097
Stream size : 3.01 GiB (58%)
Title : Romeo + Juliet.1996.BDRip (HEVC)1080p.[DUB], 2X[MVO], 2x[AVO], 2x[Ukr].xz
Writing library : x265 3.2+9-971180b100f8:[Windows][GCC 9.2.0][64 bit] 10bit
Encoding settings : cpuid=1111039 / frame-threads=3 / numa-pools=12 / wpp / no-pmode / no-pme / no-psnr / ssim / log-level=2 / input-csp=1 / input-res=1920x800 / interlace=0 / total-frames=172867 / level-idc=0 / high-tier=1 / uhd-bd=0 / ref=4 / no-allow-non-conformance / no-repeat-headers / annexb / no-aud / no-hrd / info / hash=0 / no-temporal-layers / open-gop / min-keyint=23 / keyint=250 / gop-lookahead=0 / bframes=8 / b-adapt=2 / b-pyramid / bframe-bias=40 / rc-lookahead=80 / lookahead-slices=4 / scenecut=40 / radl=0 / no-splice / no-intra-refresh / ctu=64 / min-cu-size=8 / rect / no-amp / max-tu-size=32 / tu-inter-depth=1 / tu-intra-depth=1 / limit-tu=0 / rdoq-level=2 / dynamic-rd=0.00 / ssim-rd / signhide / no-tskip / nr-intra=0 / nr-inter=0 / constrained-intra / strong-intra-smoothing / max-merge=5 / limit-refs=3 / limit-modes / me=3 / subme=7 / merange=57 / temporal-mvp / no-frame-dup / no-hme / weightp / no-weightb / no-analyze-src-pics / deblock=-3:-3 / sao / no-sao-non-deblock / rd=4 / selective-sao=4 / early-skip / rskip / no-fast-intra / no-tskip-fast / no-cu-lossless / no-b-intra / no-splitrd-skip / rdpenalty=0 / psy-rd=3.50 / psy-rdoq=2.50 / no-rd-refine / no-lossless / cbqpoffs=0 / crqpoffs=0 / rc=crf / crf=18.0 / qcomp=0.60 / qpstep=4 / stats-write=0 / stats-read=0 / ipratio=1.40 / pbratio=1.30 / aq-mode=3 / aq-strength=0.40 / cutree / zone-count=0 / no-strict-cbr / qg-size=32 / no-rc-grain / qpmax=69 / qpmin=0 / no-const-vbv / sar=0 / overscan=0 / videoformat=5 / range=0 / colorprim=2 / transfer=2 / colormatrix=2 / chromaloc=0 / display-window=0 / cll=0,0 / min-luma=0 / max-luma=1023 / log2-max-poc-lsb=8 / vui-timing-info / vui-hrd-info / slices=1 / no-opt-qp-pps / no-opt-ref-list-length-pps / no-multi-pass-opt-rps / scenecut-bias=0.05 / no-opt-cu-delta-qp / no-aq-motion / no-hdr / no-hdr-opt / no-dhdr10-opt / no-idr-recovery-sei / analysis-reuse-level=5 / scale-factor=0 / refine-intra=0 / refine-inter=0 / refine-mv=1 / refine-ctu-distortion=0 / no-limit-sao / ctu-info=0 / no-lowpass-dct / refine-analysis-type=0 / copy-pic=1 / max-ausize-factor=1.0 / no-dynamic-refine / no-single-sei / no-hevc-aq / no-svt / no-field / qp-adaptation-range=1.00
Default : Yes
Forced : No

Audio #1
ID : 2
Format : AC-3
Format/Info : Audio Coding 3
Mode extension : CM (complete main)
Format settings, Endianness : Big
Codec ID : A_AC3
Duration : 2h 0mn
Bit rate mode : Constant
Bit rate : 384 Kbps
Channel(s) : 6 channels
Channel positions : Front: L C R, Side: L R, LFE
Sampling rate : 48.0 KHz
Compression mode : Lossy
Stream size : 330 MiB (6%)
Title : DUB
Language : Russian
Default : Yes
Forced : No

Audio #2
ID : 3
Format : AC-3
Format/Info : Audio Coding 3
Mode extension : CM (complete main)
Format settings, Endianness : Big
Codec ID : A_AC3
Duration : 2h 0mn
Bit rate mode : Constant
Bit rate : 192 Kbps
Channel(s) : 2 channels
Channel positions : Front: L R
Sampling rate : 48.0 KHz
Compression mode : Lossy
Stream size : 165 MiB (3%)
Title : Premjer VIDEO
Language : Russian
Default : No
Forced : No

Audio #3
ID : 4
Format : AC-3
Format/Info : Audio Coding 3
Mode extension : CM (complete main)
Format settings, Endianness : Big
Codec ID : A_AC3
Duration : 2h 0mn
Bit rate mode : Constant
Bit rate : 384 Kbps
Channel(s) : 6 channels
Channel positions : Front: L C R, Side: L R, LFE
Sampling rate : 48.0 KHz
Compression mode : Lossy
Stream size : 330 MiB (6%)
Title : Pozitiv
Language : Russian
Default : No
Forced : No

Audio #4
ID : 5
Format : AC-3
Format/Info : Audio Coding 3
Mode extension : CM (complete main)
Format settings, Endianness : Big
Codec ID : A_AC3
Duration : 2h 0mn
Bit rate mode : Constant
Bit rate : 384 Kbps
Channel(s) : 6 channels
Channel positions : Front: L C R, Side: L R, LFE
Sampling rate : 48.0 KHz
Compression mode : Lossy
Stream size : 330 MiB (6%)
Title : Glanz&Koroleva
Language : Russian
Default : No
Forced : No

Audio #5
ID : 6
Format : AC-3
Format/Info : Audio Coding 3
Mode extension : CM (complete main)
Format settings, Endianness : Big
Codec ID : A_AC3
Duration : 2h 0mn
Bit rate mode : Constant
Bit rate : 384 Kbps
Channel(s) : 6 channels
Channel positions : Front: L C R, Side: L R, LFE
Sampling rate : 48.0 KHz
Compression mode : Lossy
Stream size : 330 MiB (6%)
Title : Jyvov
Language : Russian
Default : No
Forced : No

Audio #6
ID : 7
Format : AC-3
Format/Info : Audio Coding 3
Mode extension : CM (complete main)
Format settings, Endianness : Big
Codec ID : A_AC3
Duration : 2h 0mn
Bit rate mode : Constant
Bit rate : 192 Kbps
Channel(s) : 2 channels
Channel positions : Front: L R
Sampling rate : 48.0 KHz
Compression mode : Lossy
Stream size : 165 MiB (3%)
Title : Kashkin
Language : Russian
Default : No
Forced : No

Audio #7
ID : 8
Format : AC-3
Format/Info : Audio Coding 3
Mode extension : CM (complete main)
Format settings, Endianness : Big
Codec ID : A_AC3
Duration : 2h 0mn
Bit rate mode : Constant
Bit rate : 384 Kbps
Channel(s) : 6 channels
Channel positions : Front: L C R, Side: L R, LFE
Sampling rate : 48.0 KHz
Compression mode : Lossy
Stream size : 330 MiB (6%)
Title : Ukr_Novuj Kanal
Language : Ukrainian
Default : No
Forced : No

Audio #8
ID : 9
Format : AC-3
Format/Info : Audio Coding 3
Mode extension : CM (complete main)
Format settings, Endianness : Big
Codec ID : A_AC3
Duration : 2h 0mn
Bit rate mode : Constant
Bit rate : 192 Kbps
Channel(s) : 2 channels
Channel positions : Front: L R
Sampling rate : 48.0 KHz
Compression mode : Lossy
Stream size : 165 MiB (3%)
Title : Ukr_TET
Language : Ukrainian
Default : No
Forced : No

Text #1
ID : 10
Format : VobSub
Muxing mode : zlib
Codec ID : S_VOBSUB
Codec ID/Info : Picture based subtitle format used on DVDs
Title : Rus
Language : Russian
Default : No
Forced : No

Text #2
ID : 11
Format : VobSub
Muxing mode : zlib
Codec ID : S_VOBSUB
Codec ID/Info : Picture based subtitle format used on DVDs
Title : Ukr
Language : Ukrainian
Default : No
Forced : No

Text #3
ID : 12
Format : VobSub
Muxing mode : zlib
Codec ID : S_VOBSUB
Codec ID/Info : Picture based subtitle format used on DVDs
Title : Eng
Language : English
Default : No
Forced : No

Menu
00:00:00.000 : en:The Prologue
00:09:37.368 : en:Sycamore Grove
00:13:37.150 : en:Bachelor of the Year
00:14:28.242 : en:The Pool Hall
00:15:58.457 : en:The Capulet Mansion
00:19:05.770 : en:Mecutio at Sycamore Grove
00:24:06.070 : en:The Party Parties
00:25:31.947 : en:Romeo Spies Juliet
00:27:57.551 : en:Fulgencio Warn Tybalt
00:28:46.141 : en:Juliet, the Flirt
00:30:09.016 : en:First Kisses
00:32:19.855 : en:The Revelation
00:33:21.082 : en:The Party's Over
00:35:06.521 : en:Romeo Sneaks Back
00:45:08.789 : en:Arranging the Marriage
00:49:46.734 : en:Boys on the Beach
00:51:35.759 : en:Romeo Gets the Word From the Nurse
00:53:48.934 : en:The Nurse Teases Juliet
00:55:58.021 : en:The Wedding
00:57:32.032 : en:Death on a Summer's Day
01:07:51.401 : en:Retribution at Twilight
01:15:26.772 : en:A Wedding Night
01:22:17.724 : en:Juliet Learns Her Options
01:29:29.281 : en:Romeo Misses a Message in Mantua
01:29:55.974 : en:Juliet Takes Her Medicine
01:32:33.631 : en:Romeo Learns of His Beloved' Fate
01:40:51.170 : en:Together at Last
01:51:31.018 : en:Epilogue
01:53:17.624 : en:End Titles

скриншот   скриншот   скриншот   скриншот   скриншот   скриншот  
pb.wtf



Скачать Ромео + Джульетта через торрент http://i60.fastpic.ru/big/2014/0324/bf/b252847d314f84656191cdafc91dc7bf.jpg Скачать фильм Ромео + Джульетта через торрент бесплантно в хорошем качестве Описание: Весьма вольная и смелая интерпретация великой пьесы У. Шекспира, на современный лад и манер! Верона стала огромным мегаполисом, ... 10 10 2
Info! Золотая раздача, скачанное не засчитывается.
Торрент: Зарегистрирован [2021-02-23 09:30] · скачан: 30 раз
Статус: √ проверено
Размер: 5.21 GB
Как cкачать? Как скачать Ромео + Джульетта через торрент | UTorrent

% Раздел Тема Автор DL S | L
Фильмы (Blu-ray, BD-Remux, HDDVD) [ 27.69 GB ] Ромео и Джульетта / Romeo and Juliet [2013 BD-Remux USA Transfer ] Seedtank Скачать
1 | 0
Фильмы [HD 720p, 1080p] (Звук Cam, VO, DVO) [ 4.67 GB ] Ромео и Джульетта / Romeo and Juliet [1968 Мелодрада HDTVRip 720p ] Caня Скачать
1 | 1
Фильмы 2013 [DVDrip, WEB-DLRip, HDrip] [ 2.18 GB ] Ромео и Джульетта / Romeo and Juliet [2013 BDRip ] DJERG Скачать
1 | 0
Фильмы (Blu-ray, BD-Remux, HDDVD) [ 33.2 GB ] Ромео и Джульетта / Romeo and Juliet [2013 USA Transfer / Blu-Ray Remux ] кэп Скачать
1 | 0
Классические порно фильмы [ 1.12 GB ] Juliet And Romeo / Джульетта и Ромео [1995 All Sex Feature Oral Anal Foreign Group / Joe D'Amato) DVDRip] Majestro Скачать
1 | 1
Фильмы 2013 [DVDrip, WEB-DLRip, HDrip] [ 1.46 GB ] Ромео и Джульетта / Romeo and Juliet [2013 HDRip [] MihailHD Скачать
1 | 0
Фильмы (DVD фильмы) [ 6.76 GB ] Ромео и Джульетта / Romeo and Juliet [2013 DVD9] R5 voovaz Скачать
1 | 0

28-11-2019 20:33  

Отключить всю рекламу на сайте

    Дорогой пользователь! Огромная просьба, поблагодарите релизера, оцените раздачу и оставьте свои комментарий, если Вы скачали Ромео + Джульетта через торрент бесплатно! Внесите свою лепту в развитие PiratBit!
    Комментировать посты могут только пользователи прошедшие не сложную регистрацию
    Показать сообщения:    

    Ромео + Джульетта через торрент
    Скачать бесплатно Ромео + Джульетта
    Ромео + Джульетта скачать торрент
    Ромео + Джульетта смотреть онлайн
    Cкачать фильм Ромео + Джульетта бесплатно
    Ромео + Джульетта скачать торрент в хорошем качестве
    Ромео + Джульетта смотреть онлайн бесплатно в хорошем качестве


    Вы не можете начинать темы
    Вы не можете отвечать на сообщения
    Вы не можете редактировать свои сообщения
    Вы не можете удалять свои сообщения
    Вы не можете голосовать в опросах
    Вы не можете прикреплять файлы к сообщениям
    Вы можете скачивать файлы