1 сезон

iTunes

iTunes

1

Line

MVO

iTunes

13

1 сезон

RePack

30

Deluxe

pack

Лицензия

ВАЖНО

ИГРА 18+

pack

RePack

MK11

RePack

jed

RePack

fifa19

RePack

RDR2

RePack

NEED FOR SPEED™ PAYBACK

4 сезон

9 сезон

Бесстыжие 9 сезон

Все сериалы

все сериалы на PB.wtf

RePack

FAR CRY 5

Anonymous, добрый вечер, мы катастрофически не успеваем собрать деньги на оплату серверов, помогите нам пожалуйста 5,10,15р., для нас важна любая помощь . В качестве благодарности мы отключим Вам всю рекламу на сайте (укажите свой ник в строку Ваше имя)!

×
  
Magnet ссылка

Дом на пляже / The Beach House (Роджер Споттисвуд) [2018, драма, WEB-DLRip-AVC] [MVO] [HDRezka Studio] от MediaBit pb.wtf

Дом на пляже через торрент pb.wtf

Размер: 2.05 GB | Добавлен: 5 мес. 7 д. назад | Торрент скачан:37 раз
Скачать  

23-02-2021 20:13 Дом на пляже Скачать торрент  


Дом на пляже / The Beach House
Информация о фильме:
Название: Дом на пляже
Оригинальное название: The Beach House
Год выхода: 2018
Жанр: Драма
Режиссер: Роджер Споттисвуд

В ролях: Энди МакДауэлл, Минка Келли, Чад Майкл Мюррэй, Макензи Вега, Донна Биско, Донни Боас, Алишия Окс, Чейз Стоукс
Описание: В центре сюжета фильма, основанного на одноименном романе американской писательницы Мэри Элис Монро, оказывается Каррета «Кара» Рудленд. Потеряв престижную работу в Чикаго, она принимает предложение мамы вернуться в родной городок, чтобы починить семейный пляжный дом. Лави, мать главной героини, всю жизнь посвятила защите диких морских черепах, чем постоянно вызывала ревность родной дочери. Но когда возникает угроза уничтожения нескольких сотен черепах из-за разрушительного шторма, Кара и Лави сообща стараются спасти морских обитателей от верной гибели.



Страна: США
Студия: Hallmark Channel
Продолжительность: 01:31:50
Перевод: Профессиональный (многоголосый, закадровый) - HDRezka Studio



Информация о файле:
Кодек: AVC
Формат: MKV
Качество: WEB-DLRip-AVC
Видео: MPEG-4 AVC, 1024x576, 23.976 fps, 2298 kbps
Аудио RU: АС3, 6 ch, 48 kHz, 448 kbps
Аудио EN: АС3, 6 ch, 48 kHz, 448 kbps
Субтитры: Русские (Forced), английские
Навигация по главам: Нет

x264 info: frame I:1254 Avg QP:11.65 size:116312
x264 info: frame P:26624 Avg QP:15.23 size: 31405
x264 info: frame B:104233 Avg QP:19.54 size: 5764
x264 info: consecutive B-frames: 2.1% 2.0% 5.8% 14.1% 15.0% 44.8% 7.8% 2.6% 5.0% 0.2% 0.6%
**********************************
General
Unique ID : 111535804981121736150141166845646900586 (0x53E903C14FB75023F748DFE0CA708D6A)
Complete name : D:uTorrentРипы_от_wolf1245_MediaBitThe Beach House.2018.MVO.HDRezka.WEB-DLRip-AVC_wolf1245_MediaBit.mkv
Format : Matroska
Format version : Version 4
File size : 2.05 GiB
Duration : 1 h 31 min
Overall bit rate : 3 196 kb/s
Movie name : The Beach House.2018.MVO.HDRezka.WEB-DLRip-AVC_wolf1245_MediaBit
Encoded date : UTC 2021-02-23 20:02:56
Writing application : mkvmerge v53.0.0 ('Fool's Gold') 64-bit
Writing library : libebml v1.4.1 + libmatroska v1.6.2
Video
ID : 1
Format : AVC
Format/Info : Advanced Video Codec
Format profile : High@L4.1
Format settings : CABAC / 12 Ref Frames
Format settings, CABAC : Yes
Format settings, Reference frames : 12 frames
Codec ID : V_MPEG4/ISO/AVC
Duration : 1 h 31 min
Bit rate : 2 298 kb/s
Width : 1 024 pixels
Height : 576 pixels
Display aspect ratio : 16:9
Frame rate mode : Constant
Frame rate : 23.976 (24000/1001) FPS
Color space : YUV
Chroma subsampling : 4:2:0
Bit depth : 8 bits
Scan type : Progressive
Bits/(Pixel*Frame) : 0.162
Stream size : 1.47 GiB (72%)
Title : _wolf1245_MediaBit
Writing library : x264 core 157 r2958 57baac4
Encoding settings : cabac=1 / ref=12 / deblock=1:-3:-2 / analyse=0x3:0x133 / me=umh / subme=10 / psy=1 / psy_rd=1.00:0.00 / mixed_ref=1 / me_range=32 / chroma_me=1 / trellis=2 / 8x8dct=1 / cqm=0 / deadzone=21,11 / fast_pskip=1 / chroma_qp_offset=-2 / threads=10 / lookahead_threads=2 / sliced_threads=0 / nr=0 / decimate=1 / interlaced=0 / bluray_compat=0 / constrained_intra=0 / bframes=10 / b_pyramid=2 / b_adapt=2 / b_bias=0 / direct=3 / weightb=1 / open_gop=0 / weightp=2 / keyint=240 / keyint_min=24 / scenecut=40 / intra_refresh=0 / rc_lookahead=60 / rc=2pass / mbtree=1 / bitrate=2298 / ratetol=1.0 / qcomp=0.60 / qpmin=0 / qpmax=69 / qpstep=4 / cplxblur=20.0 / qblur=0.5 / vbv_maxrate=50000 / vbv_bufsize=62500 / nal_hrd=none / filler=0 / ip_ratio=1.40 / aq=1:0.80
Language : English
Default : Yes
Forced : No
Color range : Limited
Color primaries : BT.709
Transfer characteristics : BT.709
Matrix coefficients : BT.709
Audio #1
ID : 2
Format : AC-3
Format/Info : Audio Coding 3
Commercial name : Dolby Digital
Codec ID : A_AC3
Duration : 1 h 31 min
Bit rate mode : Constant
Bit rate : 448 kb/s
Channel(s) : 6 channels
Channel layout : L R C LFE Ls Rs
Sampling rate : 48.0 kHz
Frame rate : 31.250 FPS (1536 SPF)
Compression mode : Lossy
Stream size : 294 MiB (14%)
Title : MVO | HDRezka Studio
Language : Russian
Service kind : Complete Main
Default : Yes
Forced : No
Audio #2
ID : 3
Format : AC-3
Format/Info : Audio Coding 3
Commercial name : Dolby Digital
Codec ID : A_AC3
Duration : 1 h 31 min
Bit rate mode : Constant
Bit rate : 448 kb/s
Channel(s) : 6 channels
Channel layout : L R C LFE Ls Rs
Sampling rate : 48.0 kHz
Frame rate : 31.250 FPS (1536 SPF)
Compression mode : Lossy
Stream size : 294 MiB (14%)
Title : ORIGINAL
Language : English
Service kind : Complete Main
Default : No
Forced : No
Text #1
ID : 4
Format : UTF-8
Codec ID : S_TEXT/UTF8
Codec ID/Info : UTF-8 Plain Text
Duration : 1 h 28 min
Bit rate : 0 b/s
Count of elements : 8
Stream size : 419 Bytes (0%)
Title : forced
Language : Russian
Default : No
Forced : No
Text #2
ID : 5
Format : UTF-8
Codec ID : S_TEXT/UTF8
Codec ID/Info : UTF-8 Plain Text
Duration : 1 h 30 min
Bit rate : 64 b/s
Count of elements : 1672
Stream size : 42.3 KiB (0%)
Language : English
Default : No
Forced : No
Релиз от: &

Автор релиза:
pb.wtf



Скачать Дом на пляже через торрент https://i114.fastpic.ru/big/2021/0223/45/6bbe0438bd914ddce24f5482cf4b0245.png Скачать фильм Дом на пляже через торрент бесплантно в хорошем качестве Описание: В центре сюжета фильма, основанного на одноименном романе американской писательницы Мэри Элис Монро, оказывается Каррета «Кара» ... 10 10 3
Торрент: Зарегистрирован [2021-02-23 20:13] · скачан: 37 раз
Статус: √ проверено
Размер: 2.05 GB
Как cкачать? Как скачать Дом на пляже через торрент | UTorrent

28-11-2019 20:33  

Отключить всю рекламу на сайте

    Дорогой пользователь! Огромная просьба, поблагодарите релизера, оцените раздачу и оставьте свои комментарий, если Вы скачали Дом на пляже через торрент бесплатно! Внесите свою лепту в развитие PiratBit!
    Комментировать посты могут только пользователи прошедшие не сложную регистрацию
    Показать сообщения:    

    Дом на пляже через торрент
    Скачать бесплатно Дом на пляже
    Дом на пляже скачать торрент
    Дом на пляже смотреть онлайн
    Cкачать фильм Дом на пляже бесплатно
    Дом на пляже скачать торрент в хорошем качестве
    Дом на пляже смотреть онлайн бесплатно в хорошем качестве


    Вы не можете начинать темы
    Вы не можете отвечать на сообщения
    Вы не можете редактировать свои сообщения
    Вы не можете удалять свои сообщения
    Вы не можете голосовать в опросах
    Вы не можете прикреплять файлы к сообщениям
    Вы можете скачивать файлы