Присоединяйтесь к нам в Telegram!, здесь всегда актуальный адрес сайта, оперативная поддержка и многое другое!!

>

5.9

iTunes

7.4

iTunes

9.4

1 сезон

1

7.4

2 сезон

7.2

iTunes

7.3

1 сезон

13

6.1

iTunes

8.3

GOG

30

ULTIMATE

pack

9.9

Лицензия

ВАЖНО

ИГРА 18+

pack

7.3

RePack

MK11

7.7

RePack

jed

7.8

RePack

fifa19

8.5

RePack

RDR2

RePack

NEED FOR SPEED™ PAYBACK

5 сезон

9 сезон

Бесстыжие 9 сезон

Все сериалы

все сериалы на PB.wtf

RePack

FAR CRY 5

Anonymous, доброе утро, мы катастрофически не успеваем собрать деньги на оплату серверов, помогите нам пожалуйста 5,10,15р., для нас важна любая помощь . В качестве благодарности мы отключим Вам всю рекламу на сайте (укажите свой ник в строку Ваше имя)!

×
  
Magnet ссылка

Школа отменяется навсегда / School's Out Forever (Оливер С. Милберн) [2021, Драма, фантастика, боевик, WEB-DLRip-AVC] [MVO] [HDRezka Studio] от MediaBit pb.wtf

Школа отменяется навсегда через торрент pb.wtf

Раздают: 2 [ 526 KB/s ]
Размер: 2.05 GB | Добавлен: 9 мес. назад | Торрент скачан:212 раз
Смотреть онлайн Школа отменяется навсегда | Скачать    Ребята, помогите собрать деньги на оплату серверов!!!

24-02-2021 20:09 Школа отменяется навсегда Скачать торрент  


Школа отменяется навсегда / School's Out Forever
Информация о фильме:
Название: Школа отменяется навсегда
Оригинальное название: School's Out Forever
Год выхода: 2021
Жанр: Драма, фантастика, боевик
Режиссер: Оливер С. Милберн

В ролях: Оскар Кеннеди, Энтони Хэд, Алекс МакКуин, Саманта Бонд, Стив Орам, Себастьян Крофт, Жасмин Блэкбороу, Макс Рафаэль, Фрея Паркс, Гордон Александр и др.

Описание: Когда 15-летнего Ли Кигана исключили из частной школы, в мире началась пандемия. Отец парня давно умер, а мать оказалась заперта в другой стране после закрытия границ. Она даёт единственное указание сыну — вернуться в школу. Однако попасть обратно не так-то просто: в заведении уже ввели военное положение и сформировали силы самообороны. Тем временем лучший друг Ли не может справиться с мыслью о наступающем конце света, а влюблённость в школьную медсестру вовсе не помогает Кигану сконцентрироваться на главной задаче — выжить любой ценой.



Страна: Великобритания
Студия: Rebellion Developments Ltd.
Продолжительность: 01:44:55
Перевод: Профессиональный (многоголосый, закадровый) - HDRezka Studio



Информация о файле:
Кодек: AVC
Формат: MKV
Качество: WEB-DLRip-AVC
Видео: MPEG-4 AVC, 1024x428, 24,000 fps, 1899 kbps
Аудио RU: AC3, 6 ch, 48 kHz, 448 kbps
Аудио EN: AC3, 6 ch, 48 kHz, 448 kbps
Субтитры: Русские (Forced), английские
Навигация по главам: Нет

x264 info: frame I:1104 Avg QP:10.62 size: 79306
x264 info: frame P:32333 Avg QP:13.39 size: 23536
x264 info: frame B:117646 Avg QP:15.99 size: 5489
x264 info: consecutive B-frames: 1.8% 2.1% 7.1% 27.6% 14.7% 28.8% 6.7% 8.5% 1.3% 0.7% 0.8%
********************************
General
Unique ID : 126287241625902051516347671140242463201 (0x5F0209BBF331DFA60FB1832C0A3E99E1)
Complete name : D:uTorrentРипы_от_wolf1245_MediaBitSchools.Out.Forever.2021.MVO.HDRezka.WEB-DLRip-AVC_wolf1245_MediaBit.mkv
Format : Matroska
Format version : Version 4
File size : 2.05 GiB
Duration : 1 h 44 min
Overall bit rate : 2 797 kb/s
Movie name : Schools.Out.Forever.2021.MVO.HDRezka.WEB-DLRip-AVC_wolf1245_MediaBit
Encoded date : UTC 2021-02-24 19:53:51
Writing application : mkvmerge v53.0.0 ('Fool's Gold') 64-bit
Writing library : libebml v1.4.1 + libmatroska v1.6.2
Video
ID : 1
Format : AVC
Format/Info : Advanced Video Codec
Format profile : High@L4.1
Format settings : CABAC / 12 Ref Frames
Format settings, CABAC : Yes
Format settings, Reference frames : 12 frames
Codec ID : V_MPEG4/ISO/AVC
Duration : 1 h 44 min
Bit rate : 1 899 kb/s
Width : 1 024 pixels
Height : 428 pixels
Display aspect ratio : 2.40:1
Frame rate mode : Constant
Frame rate : 24.000 FPS
Color space : YUV
Chroma subsampling : 4:2:0
Bit depth : 8 bits
Scan type : Progressive
Bits/(Pixel*Frame) : 0.181
Stream size : 1.39 GiB (68%)
Title : _wolf1245_MediaBit
Writing library : x264 core 157 r2958 57baac4
Encoding settings : cabac=1 / ref=12 / deblock=1:-3:-2 / analyse=0x3:0x133 / me=umh / subme=10 / psy=1 / psy_rd=1.00:0.00 / mixed_ref=1 / me_range=32 / chroma_me=1 / trellis=2 / 8x8dct=1 / cqm=0 / deadzone=21,11 / fast_pskip=1 / chroma_qp_offset=-2 / threads=10 / lookahead_threads=2 / sliced_threads=0 / nr=0 / decimate=1 / interlaced=0 / bluray_compat=0 / constrained_intra=0 / bframes=10 / b_pyramid=2 / b_adapt=2 / b_bias=0 / direct=3 / weightb=1 / open_gop=0 / weightp=2 / keyint=240 / keyint_min=24 / scenecut=40 / intra_refresh=0 / rc_lookahead=60 / rc=2pass / mbtree=1 / bitrate=1899 / ratetol=1.0 / qcomp=0.60 / qpmin=0 / qpmax=69 / qpstep=4 / cplxblur=20.0 / qblur=0.5 / vbv_maxrate=50000 / vbv_bufsize=62500 / nal_hrd=none / filler=0 / ip_ratio=1.40 / aq=1:0.80
Language : English
Default : Yes
Forced : No
Color range : Limited
Color primaries : BT.709
Transfer characteristics : BT.709
Matrix coefficients : BT.709
Audio #1
ID : 2
Format : AC-3
Format/Info : Audio Coding 3
Commercial name : Dolby Digital
Codec ID : A_AC3
Duration : 1 h 44 min
Bit rate mode : Constant
Bit rate : 448 kb/s
Channel(s) : 6 channels
Channel layout : L R C LFE Ls Rs
Sampling rate : 48.0 kHz
Frame rate : 31.250 FPS (1536 SPF)
Compression mode : Lossy
Stream size : 336 MiB (16%)
Title : MVO | HDrezka studio
Language : Russian
Service kind : Complete Main
Default : Yes
Forced : No
Audio #2
ID : 3
Format : AC-3
Format/Info : Audio Coding 3
Commercial name : Dolby Digital
Codec ID : A_AC3
Duration : 1 h 44 min
Bit rate mode : Constant
Bit rate : 448 kb/s
Channel(s) : 6 channels
Channel layout : L R C LFE Ls Rs
Sampling rate : 48.0 kHz
Frame rate : 31.250 FPS (1536 SPF)
Compression mode : Lossy
Stream size : 336 MiB (16%)
Title : ORIGINAL
Language : English
Service kind : Complete Main
Default : No
Forced : No
Text #1
ID : 4
Format : UTF-8
Codec ID : S_TEXT/UTF8
Codec ID/Info : UTF-8 Plain Text
Duration : 54 min 52 s
Bit rate : 2 b/s
Count of elements : 28
Stream size : 1.15 KiB (0%)
Language : Russian
Default : No
Forced : No
Text #2
ID : 5
Format : UTF-8
Codec ID : S_TEXT/UTF8
Codec ID/Info : UTF-8 Plain Text
Duration : 1 h 43 min
Bit rate : 28 b/s
Count of elements : 845
Stream size : 21.4 KiB (0%)
Language : English
Default : No
Forced : No
Text #3
ID : 6
Format : UTF-8
Codec ID : S_TEXT/UTF8
Codec ID/Info : UTF-8 Plain Text
Duration : 1 h 44 min
Bit rate : 39 b/s
Count of elements : 1208
Stream size : 29.9 KiB (0%)
Title : SDH
Language : English
Default : No
Forced : No
Релиз от: &

Автор релиза:
pb.wtf



Скачать Школа отменяется навсегда через торрент https://i114.fastpic.ru/big/2021/0224/7b/25502a5c06e760af56832e7a6b24767b.jpg Скачать, смотреть онлайн Школа отменяется навсегда бесплантно в хорошем качестве Описание: Когда 15-летнего Ли Кигана исключили из частной школы, в мире началась пандемия. Отец парня давно умер, а мать оказалась ... 8 10 7
Торрент: Зарегистрирован [2021-02-24 20:09] · скачан: 212 раз
Статус: √ проверено
Размер: 2.05 GB
Как cкачать? Как скачать Школа отменяется навсегда через торрент | UTorrent

28-11-2019 20:33  

Отключить всю рекламу на сайте

    Дорогой пользователь! Огромная просьба, поблагодарите релизера, оцените раздачу и оставьте свои комментарий, если Вы скачали Школа отменяется навсегда через торрент бесплатно!
    Комментировать посты могут только пользователи прошедшие не сложную регистрацию
    Показать сообщения:    

    Школа отменяется навсегда через торрент
    Скачать бесплатно Школа отменяется навсегда
    Школа отменяется навсегда скачать торрент
    Школа отменяется навсегда смотреть онлайн
    Cкачать фильм Школа отменяется навсегда бесплатно
    Школа отменяется навсегда скачать торрент в хорошем качестве
    Школа отменяется навсегда смотреть онлайн бесплатно в хорошем качестве


    Вы не можете начинать темы
    Вы не можете отвечать на сообщения
    Вы не можете редактировать свои сообщения
    Вы не можете удалять свои сообщения
    Вы не можете голосовать в опросах
    Вы не можете прикреплять файлы к сообщениям
    Вы можете скачивать файлы