Присоединяйтесь к нам в Telegram!, здесь всегда актуальный адрес сайта, оперативная поддержка и многое другое!!

>

5.9

iTunes

7.4

iTunes

9.4

1 сезон

1

7.4

2 сезон

7.2

iTunes

7.3

1 сезон

13

6.1

iTunes

8.3

Пиратка

30

ULTIMATE

pack

9.9

Лицензия

ВАЖНО

ИГРА 18+

pack

7.3

RePack

MK11

7.7

RePack

jed

7.8

RePack

fifa19

8.5

RePack

RDR2

RePack

NEED FOR SPEED™ PAYBACK

5 сезон

9 сезон

Бесстыжие 9 сезон

Все сериалы

все сериалы на PB.wtf

RePack

FAR CRY 5

Anonymous, доброй ночи, мы катастрофически не успеваем собрать деньги на оплату серверов, помогите нам пожалуйста 5,10,15р., для нас важна любая помощь . В качестве благодарности мы отключим Вам всю рекламу на сайте (укажите свой ник в строку Ваше имя)!

×
  
Magnet ссылка

Спаситель / Redemption Day (Хичам Хаджи) [2021, боевик, триллер, WEB-DLRip-AVC] [MVO] [IVI] от MediaBit pb.wtf

Спаситель через торрент pb.wtf

Размер: 2.19 GB | Добавлен: 9 мес. назад | Торрент скачан:299 раз
Смотреть онлайн Спаситель | Скачать    Ребята, помогите собрать деньги на оплату серверов!!!

25-02-2021 17:27 Спаситель Скачать торрент  


Спаситель / Redemption Day
Информация о фильме:
Название: Спаситель
Оригинальное название: Redemption Day
Год выхода: 2021
Жанр: боевик, триллер
Режиссер: Хичам Хаджи

В ролях: Гэри Дурдан, Энди Гарсиа, Эрни Хадсон, Мартин Донован, Роберт Неппер, Сами Насери, Серинда Свон, Брайс Бекстер, Дон Бигг, Джей Футлик

Описание: Будучи награжденным Почетной медалью за храбрость во время перестрелки с ИГИЛ, капитан морской пехоты США Брэд Пакстон страдает от долгосрочных последствий пребывания в зоне боевых действий. С поддержкой любящей жены Кейт Брэд пытается приспособиться к гражданской жизни. Когда Кейт, известному археологу, предоставляется уникальная возможность сделать карьеру в Марокко, Брэд призывает ее не упускать этот шанс. Однако когда Кейт приезжает, ее берет в заложники террористическая группа, которая требует 10 миллионов долларов в качестве выкупа. Брэд мчится в Марокко, где посол США прекратил переговоры об освобождении Кейт после того, как сделка поставила под угрозу переговоры ООН о будущих поставках нефти в регионе. Когда раскрываются необычные обстоятельства похищения Кейт, Брэд вынужден использовать свои военные навыки в смелой и смертоносной операции, чтобы найти виновных и спасти женщину, которую он любит.



Страна: Марокко, США
Студия: H Films, Buffalo 8 Productions, Redemption Film
Продолжительность: 01:39:59
Перевод: Профессиональный (многоголосый, закадровый) - IVI



Информация о файле:
Кодек: AVC
Формат: MKV
Качество: WEB-DLRip-AVC
Видео: MPEG-4 AVC, 1024x428, 23.976 fps, 1925 kb/s
Аудио RU: AC3, 6 ch, 48 kHz, 384 kbps
Аудио UKR: AC3, 6 ch, 48 kHz, 384 kbps
Аудио EN: AC3, 6 ch, 48 kHz, 448 kbps
Субтитры: English (SDH)
Навигация по главам: Нет

x264 info: frame I:1066 Avg QP: 9.97 size: 73191
x264 info: frame P:34778 Avg QP:13.09 size: 22925
x264 info: frame B:108005 Avg QP:16.46 size: 5261
x264 info: consecutive B-frames: 2.3% 3.0% 9.7% 46.6% 12.0% 14.5% 4.2% 3.7% 1.1% 0.9% 2.0%
********************************
General
Unique ID : 166280535306263261849160806037957952933 (0x7D187759A32830B00CA71D90E4FCC5A5)
Complete name : D:uTorrentРипы_от_wolf1245_MediaBitRedemption Day.2021.MVO.IVI.WEB-DLRip-AVC_wolf1245_MediaBit.mkv
Format : Matroska
Format version : Version 4
File size : 2.19 GiB
Duration : 1 h 39 min
Overall bit rate : 3 142 kb/s
Movie name : Redemption Day.2021.MVO.IVI.WEB-DLRip-AVC_wolf1245_MediaBit
Encoded date : UTC 2021-02-25 17:10:27
Writing application : mkvmerge v53.0.0 ('Fool's Gold') 64-bit
Writing library : libebml v1.4.1 + libmatroska v1.6.2
Video
ID : 1
Format : AVC
Format/Info : Advanced Video Codec
Format profile : High@L4.1
Format settings : CABAC / 12 Ref Frames
Format settings, CABAC : Yes
Format settings, Reference frames : 12 frames
Codec ID : V_MPEG4/ISO/AVC
Duration : 1 h 39 min
Bit rate : 1 925 kb/s
Width : 1 024 pixels
Height : 428 pixels
Display aspect ratio : 2.40:1
Frame rate mode : Constant
Frame rate : 23.976 (24000/1001) FPS
Color space : YUV
Chroma subsampling : 4:2:0
Bit depth : 8 bits
Scan type : Progressive
Bits/(Pixel*Frame) : 0.183
Stream size : 1.34 GiB (61%)
Title : _wolf1245_MediaBit
Writing library : x264 core 157 r2958 57baac4
Encoding settings : cabac=1 / ref=12 / deblock=1:-2:-2 / analyse=0x3:0x133 / me=umh / subme=10 / psy=1 / psy_rd=1.00:0.00 / mixed_ref=1 / me_range=32 / chroma_me=1 / trellis=2 / 8x8dct=1 / cqm=0 / deadzone=21,11 / fast_pskip=1 / chroma_qp_offset=-2 / threads=10 / lookahead_threads=2 / sliced_threads=0 / nr=0 / decimate=1 / interlaced=0 / bluray_compat=0 / constrained_intra=0 / bframes=10 / b_pyramid=2 / b_adapt=2 / b_bias=0 / direct=3 / weightb=1 / open_gop=0 / weightp=2 / keyint=240 / keyint_min=24 / scenecut=40 / intra_refresh=0 / rc_lookahead=60 / rc=2pass / mbtree=1 / bitrate=1925 / ratetol=1.0 / qcomp=0.60 / qpmin=0 / qpmax=69 / qpstep=4 / cplxblur=20.0 / qblur=0.5 / vbv_maxrate=50000 / vbv_bufsize=62500 / nal_hrd=none / filler=0 / ip_ratio=1.40 / aq=2:1.00
Language : English
Default : Yes
Forced : No
Color range : Limited
Color primaries : BT.709
Transfer characteristics : BT.709
Matrix coefficients : BT.709
Audio #1
ID : 2
Format : AC-3
Format/Info : Audio Coding 3
Commercial name : Dolby Digital
Codec ID : A_AC3
Duration : 1 h 39 min
Bit rate mode : Constant
Bit rate : 384 kb/s
Channel(s) : 6 channels
Channel layout : L R C LFE Ls Rs
Sampling rate : 48.0 kHz
Frame rate : 31.250 FPS (1536 SPF)
Compression mode : Lossy
Stream size : 274 MiB (12%)
Title : MVO | (IVI)
Language : Russian
Service kind : Complete Main
Default : Yes
Forced : No
Audio #2
ID : 3
Format : AC-3
Format/Info : Audio Coding 3
Commercial name : Dolby Digital
Codec ID : A_AC3
Duration : 1 h 39 min
Bit rate mode : Constant
Bit rate : 384 kb/s
Channel(s) : 6 channels
Channel layout : L R C LFE Ls Rs
Sampling rate : 48.0 kHz
Frame rate : 31.250 FPS (1536 SPF)
Compression mode : Lossy
Stream size : 274 MiB (12%)
Title : MVO | (IVI)
Language : Ukrainian
Service kind : Complete Main
Default : No
Forced : No
Audio #3
ID : 4
Format : AC-3
Format/Info : Audio Coding 3
Commercial name : Dolby Digital
Codec ID : A_AC3
Duration : 1 h 39 min
Bit rate mode : Constant
Bit rate : 448 kb/s
Channel(s) : 6 channels
Channel layout : L R C LFE Ls Rs
Sampling rate : 48.0 kHz
Frame rate : 31.250 FPS (1536 SPF)
Compression mode : Lossy
Stream size : 320 MiB (14%)
Title : Original
Language : English
Service kind : Complete Main
Default : No
Forced : No
Text
ID : 5
Format : UTF-8
Codec ID : S_TEXT/UTF8
Codec ID/Info : UTF-8 Plain Text
Duration : 1 h 32 min
Bit rate : 51 b/s
Count of elements : 1160
Stream size : 35.1 KiB (0%)
Title : SDH
Language : English
Default : No
Forced : No
Релиз от: &
Автор релиза:
pb.wtf



Скачать Спаситель через торрент https://img11.lostpic.net/2021/02/25/f7884b95fe0a5ec213b58a7ffc4bfd47.jpg Скачать, смотреть онлайн Спаситель бесплантно в хорошем качестве Описание: Будучи награжденным Почетной медалью за храбрость во время перестрелки с ИГИЛ, капитан морской пехоты США Брэд Пакстон страдает ... 10 10 8
Торрент: Зарегистрирован [2021-02-25 17:27] · скачан: 299 раз
Статус: √ проверено
Размер: 2.19 GB
Как cкачать? Как скачать Спаситель через торрент | UTorrent

28-11-2019 20:33  

Отключить всю рекламу на сайте

    Дорогой пользователь! Огромная просьба, поблагодарите релизера, оцените раздачу и оставьте свои комментарий, если Вы скачали Спаситель через торрент бесплатно!
    Комментировать посты могут только пользователи прошедшие не сложную регистрацию
    Показать сообщения:    

    Спаситель через торрент
    Скачать бесплатно Спаситель
    Спаситель скачать торрент
    Спаситель смотреть онлайн
    Cкачать фильм Спаситель бесплатно
    Спаситель скачать торрент в хорошем качестве
    Спаситель смотреть онлайн бесплатно в хорошем качестве


    Вы не можете начинать темы
    Вы не можете отвечать на сообщения
    Вы не можете редактировать свои сообщения
    Вы не можете удалять свои сообщения
    Вы не можете голосовать в опросах
    Вы не можете прикреплять файлы к сообщениям
    Вы можете скачивать файлы