Всегда рабочее зеркало без VPN и Proxy просто перед .vidak.icu напиши любое слово или цифру, Пример http://o240.vidak.icu

MVO

Лицензия

1 сезон

1

1 сезон

iTunes

1 сезон

13

1 сезон

Deluxe

pack

Рекомендуем

Пиратка

30

ВАЖНО

RePack

MK11

RePack

jed

RePack

fifa19

RePack

RDR2

RePack

NEED FOR SPEED™ PAYBACK

Кинопоиск HD

6 сезон

 Острые козырьки 6 сезон

Все сериалы

все сериалы на PB.wtf

RePack

FAR CRY 5
  
Magnet ссылка

Асоциальная сеть / Silk Road (Тиллер Расселл) [2021, Триллер, драма, криминал, BDRip 1080p] DUB [iTunes] +MVO [HDRezka Studio] +AVO [A. Карповский] pb.wtf

Асоциальная сеть через торрент pb.wtf

Раздают: 1 [ 0 KB/s ]
Размер: 8.03 GB | Добавлен: 1 год 2 мес. назад | Торрент скачан:428 раз
Смотреть онлайн Асоциальная сеть | Скачать    Ребята, помогите собрать деньги на оплату серверов!!!

25-02-2021 17:53 Асоциальная сеть Скачать торрент  

Асоциальная сеть | Silk Road
Год выпуска: 2021
Страна: США
Студия: High Frequency Entertainment, Mutressa Movies, Perfect Season Productions, Piccadilly Pictures
Жанр: Триллер, драма, криминал
Продолжительность: 01:56:45
Перевод(ы):
#1: Дублированный | iTunes
#2: Профессиональный (многоголосый) | HDRezka Studio
#3: Авторский (одноголосый, закадровый) | A. Карповский
Субтитры: Русские (Forced), английские (Full, SDH)

Режиссер: Тиллер Расселл

rating

В ролях: Ник Робинсон, Дженнифер Юн, Джимми Симпсон, Джейсон Кларк, Пол Блотт, Даррел Бритт-Гибсон, Дэниэл Дэвид Стюарт, Кеннет Миллер, Александра Шипп, Кэтрин Аселтон

Описание: В мире супергероев он был бы Джокером. Настоящий суперзлодей, бросивший вызов системе. Он создал свой «Амазон» в мире даркнета, где преступники со всего мира сбывали оружие, поддельные документы и наркотики. Многомиллионное состояние, возможность по щелчку пальцев организовать любую хакерскую атаку и вооружить небольшую страну — кажется, он был неуязвим. Но как и всякий злодей он встретил своего антагониста.

Качество: BDRip 1080p
Формат: MKV

Видео: MPEG-4 AVC, 1920x802, 8000 Kbit/s, 23.976 fps
Аудио #01: 48 kHz, AC3, 5.1, 384 Kbps | Дублированный | RUS |
Аудио #02: 48 kHz, AC3, 5.1, 448 Kbps | Профессиональный многоолосый | RUS |
Аудио #03: 48 kHz, AC3, 5.1, 384 Kbps | Авторский | RUS |
Аудио #04: 48 kHz, DTS-HD MA, 5.1, 2167 Kbps | Оригинал | ENG |
скриншот  скриншот  скриншот  скриншот  

General
Unique ID : 230151320680838572673637273156165344474 (0xAD258832B8B85B61DE2714B2E3849CDA)
Complete name : F:VideoSilk.Road.2021.BDRip.1080p.seleZen.mkv
Format : Matroska
Format version : Version 4
File size : 8.03 GiB
Duration : 1 h 56 min
Overall bit rate : 9 850 kb/s
Movie name : Silk Road 2021 from seleZen
Encoded date : UTC 2021-04-11 20:03:45
Writing application : mkvmerge v55.0.0 ('Waiting For Space') 64-bit
Writing library : libebml v1.4.2 + libmatroska v1.6.4

Video
ID : 1
Format : AVC
Format/Info : Advanced Video Codec
Format profile : High@L4.1
Format settings : CABAC / 5 Ref Frames
Format settings, CABAC : Yes
Format settings, Reference : 5 frames
Codec ID : V_MPEG4/ISO/AVC
Duration : 1 h 56 min
Bit rate : 8 000 kb/s
Width : 1 920 pixels
Height : 802 pixels
Display aspect ratio : 2.40:1
Frame rate mode : Constant
Frame rate : 23.976 (24000/1001) FPS
Color space : YUV
Chroma subsampling : 4:2:0
Bit depth : 8 bits
Scan type : Progressive
Bits/(Pixel*Frame) : 0.217
Stream size : 6.52 GiB (81%)
Writing library : x264 core 146 -from seleZen
Encoding settings : cabac=1 / ref=5 / deblock=1:-2:-2 / analyse=0x3:0x133 / me=umh / subme=10 / psy=1 / psy_rd=1.07:0.05 / mixed_ref=1 / me_range=32 / chroma_me=1 / trellis=2 / 8x8dct=1 / cqm=0 / deadzone=21,11 / fast_pskip=0 / chroma_qp_offset=-3 / threads=48 / lookahead_threads=6 / sliced_threads=0 / nr=0 / decimate=0 / interlaced=0 / bluray_compat=0 / constrained_intra=0 / bframes=9 / b_pyramid=2 / b_adapt=2 / b_bias=0 / direct=3 / weightb=1 / open_gop=0 / weightp=2 / keyint=240 / keyint_min=23 / scenecut=40 / intra_refresh=0 / rc_lookahead=50 / rc=2pass / mbtree=0 / bitrate=8000 / ratetol=1.0 / qcomp=0.60 / qpmin=0 / qpmax=51 / qpstep=4 / cplxblur=20.0 / qblur=0.5 / vbv_maxrate=50000 / vbv_bufsize=62500 / nal_hrd=none / filler=0 / ip_ratio=1.40 / pb_ratio=1.30 / aq=3:0.80
Language : English
Default : Yes
Forced : No

Audio #1
ID : 2
Format : AC-3
Format/Info : Audio Coding 3
Commercial name : Dolby Digital
Codec ID : A_AC3
Duration : 1 h 56 min
Bit rate mode : Constant
Bit rate : 384 kb/s
Channel(s) : 6 channels
Channel layout : L R C LFE Ls Rs
Sampling rate : 48.0 kHz
Frame rate : 31.250 FPS (1536 SPF)
Compression mode : Lossy
Delay relative to video : 8 ms
Stream size : 320 MiB (4%)
Title : iTunes
Language : Russian
Service kind : Complete Main
Default : Yes
Forced : Yes

Audio #2
ID : 3
Format : AC-3
Format/Info : Audio Coding 3
Commercial name : Dolby Digital
Codec ID : A_AC3
Duration : 1 h 56 min
Bit rate mode : Constant
Bit rate : 448 kb/s
Channel(s) : 6 channels
Channel layout : L R C LFE Ls Rs
Sampling rate : 48.0 kHz
Frame rate : 31.250 FPS (1536 SPF)
Compression mode : Lossy
Stream size : 374 MiB (5%)
Title : MVO [HDRezka Studio]
Language : Russian
Service kind : Complete Main
Default : No
Forced : No

Audio #3
ID : 4
Format : AC-3
Format/Info : Audio Coding 3
Commercial name : Dolby Digital
Codec ID : A_AC3
Duration : 1 h 56 min
Bit rate mode : Constant
Bit rate : 384 kb/s
Channel(s) : 6 channels
Channel layout : L R C LFE Ls Rs
Sampling rate : 48.0 kHz
Frame rate : 31.250 FPS (1536 SPF)
Compression mode : Lossy
Stream size : 321 MiB (4%)
Title : AVO [Антон Карповский]
Language : Russian
Service kind : Complete Main
Default : No
Forced : No

Audio #4
ID : 5
Format : AC-3
Format/Info : Audio Coding 3
Commercial name : Dolby Digital
Codec ID : A_AC3
Duration : 1 h 56 min
Bit rate mode : Constant
Bit rate : 640 kb/s
Channel(s) : 6 channels
Channel layout : L R C LFE Ls Rs
Sampling rate : 48.0 kHz
Frame rate : 31.250 FPS (1536 SPF)
Compression mode : Lossy
Stream size : 534 MiB (6%)
Title : Original
Language : English
Service kind : Complete Main
Default : No
Forced : No

Text #1
ID : 6
Format : UTF-8
Codec ID : S_TEXT/UTF8
Codec ID/Info : UTF-8 Plain Text
Duration : 1 h 49 min
Bit rate : 10 b/s
Count of elements : 135
Stream size : 8.67 KiB (0%)
Title : Forced
Language : Russian
Default : Yes
Forced : Yes

Text #2
ID : 7
Format : UTF-8
Codec ID : S_TEXT/UTF8
Codec ID/Info : UTF-8 Plain Text
Duration : 1 h 47 min
Bit rate : 73 b/s
Count of elements : 1567
Stream size : 57.7 KiB (0%)
Title : Full
Language : English
Default : No
Forced : No

Text #3
ID : 8
Format : UTF-8
Codec ID : S_TEXT/UTF8
Codec ID/Info : UTF-8 Plain Text
Duration : 1 h 48 min
Bit rate : 79 b/s
Count of elements : 1729
Stream size : 63.2 KiB (0%)
Title : SDH
Language : English
Default : No
Forced : No

Menu
00:00:00.000 : en:Chapter 01
00:04:57.797 : en:Chapter 02
00:10:53.987 : en:Chapter 03
00:18:47.251 : en:Chapter 04
00:24:07.821 : en:Chapter 05
00:30:02.759 : en:Chapter 06
00:34:28.733 : en:Chapter 07
00:40:52.492 : en:Chapter 08
00:47:19.545 : en:Chapter 09
00:55:24.238 : en:Chapter 10
01:04:29.074 : en:Chapter 11
01:13:10.052 : en:Chapter 12
01:21:47.820 : en:Chapter 13
01:30:01.730 : en:Chapter 14
01:37:16.164 : en:Chapter 15
01:44:16.917 : en:Chapter 16

pb.wtf



Скачать Асоциальная сеть через торрент https://d.radikal.ru/d30/2102/24/0baffb981fd7.jpg Скачать, смотреть онлайн Асоциальная сеть бесплантно в хорошем качестве Описание: В мире супергероев он был бы Джокером. Настоящий суперзлодей, бросивший вызов системе. Он создал свой «Амазон» в мире даркнета, ... 9.9 10 20
Торрент: Зарегистрирован [2021-04-12 03:45] · скачан: 428 раз
Статус: √ проверено
Размер: 8.03 GB
Как cкачать? Как скачать Асоциальная сеть через торрент | UTorrent

% Раздел Тема Автор DL S | L
Фильмы 2021 [DVDrip, WEB-DLRip, HDrip] (DUB, MVO) [ 2.18 GB ] Асоциальная сеть / Silk Road [2021 BDRip] DUB [Akimbo Production / Blu-ray RUS] bober100 Скачать
1 | 0
Фильмы 2021 [DVDrip, WEB-DLRip, HDrip] (DUB, MVO) [ 2.18 GB ] Асоциальная сеть / Silk Road [2021 BDRip] - [] Twi7ter Скачать
1 | 0
Фильмы 2021 [DVDrip, WEB-DLRip, HDrip] (DUB, MVO) [ 1.46 GB ] Асоциальная сеть / Silk Road [2021 BDRip] - [] Twi7ter Скачать
9 | 0
Фильмы 2021 [DVDrip, WEB-DLRip, HDrip] (DUB, MVO) [ 1.46 GB ] Асоциальная сеть / Silk Road [2021 BDRip] DUB [Akimbo Production / Blu-ray RUS] bober100 Скачать
1 | 0
Фильмы (Blu-ray, BD-Remux, HDDVD) [ 30.7 GB ] Асоциальная сеть / Silk Road [2021 BD Remux 1080p] +MVO [HDRezka Studio] +AVO [A. Карповский] bober100 Скачать
1 | 0
Фильмы 2021 [DVDrip, WEB-DLRip, HDrip] (DUB, MVO) [ 2.18 GB ] Асоциальная сеть / Silk Road [2021 BDRip] MVO [HDRezka Studio] bober100 Скачать
1 | 0
Фильмы 2021 [DVDrip, WEB-DLRip, HDrip] (DUB, MVO) [ 1.46 GB ] Асоциальная сеть / Silk Road [2021 BDRip] MVO [HDRezka Studio] bober100 Скачать
1 | 0

28-11-2019 20:33  

Отключить всю рекламу на сайте

    Дорогой пользователь! Огромная просьба, поблагодарите релизера, оцените раздачу и оставьте свои комментарий, если Вы скачали Асоциальная сеть через торрент бесплатно!
    Комментировать посты могут только пользователи прошедшие не сложную регистрацию
    Показать сообщения:    

    Асоциальная сеть через торрент
    Скачать бесплатно Асоциальная сеть
    Асоциальная сеть скачать торрент
    Асоциальная сеть смотреть онлайн
    Cкачать фильм Асоциальная сеть бесплатно
    Асоциальная сеть скачать торрент в хорошем качестве
    Асоциальная сеть смотреть онлайн бесплатно в хорошем качестве


    Вы не можете начинать темы
    Вы не можете отвечать на сообщения
    Вы не можете редактировать свои сообщения
    Вы не можете удалять свои сообщения
    Вы не можете голосовать в опросах
    Вы не можете прикреплять файлы к сообщениям
    Вы можете скачивать файлы