1 сезон

1 сезон

iTunes

1

КиноПоиск HD

Кинопоиск HD

iTunes

13

1 сезон

RePack

30

Новинка

ВАЖНО

ИГРА 18+

pack

RePack

MK11
pack

Легкие деньги

RePack

jed

RePack

fifa19

RePack

RDR2

RePack

NEED FOR SPEED™ PAYBACK

4 сезон

9 сезон

Бесстыжие 9 сезон

Все сериалы

все сериалы на PB.wtf

RePack

FAR CRY 5
  
Magnet ссылка

Два нуля / Double zero (Жерар Пирес) [2004, Комедия, боевик, DVDRip-AVC] [DUB] [Лицензия] pb.wtf

Два нуля через торрент pb.wtf

Размер: 1.44 GB | Добавлен: 1 мес. 21 д. назад | Торрент скачан:24 раза
Скачать  

26-02-2021 17:58 Два нуля Скачать торрент  

Два нуля / Double zero
Год выхода: 2004
Жанр: Комедия, боевик
Страна: Франция
Студия: Warner Bros France
Продолжительность: 01:26:42
Перевод: Дубляж [Лицензия]

Режиссер: Жерар Пирес

В ролях: Эрик Жюдор, Рамзи Бедиа, Эдуар Баэр, Джорджанна Робертсон, Франсуа Шатто, Дидье Фламан, Росси де Пальма, Нино Киртадзе

О фильме:

Бен и Вилл — самые бездарные агенты, полные нули, круглые идиоты. Кому же еще поручить суперсложное, сверхсекретное задание? Глава преступного синдиката украл ядерную бомбу. Обезвредить злодея сможет далеко не каждый дурак, а только наши безбашенные друзья. Их ждет незабываемый вояж из Парижа на сказочную Ямайку, прямо в логово врага. Тупиц ничто не остановит. Им все нипочем — ни танки, ни армия ниндзя, ни команда обнаженных топ-моделей. У чудаков своя логика. Они спасут мир. Джеймс Бонд отдыхает!



✦ Качество: DVDRip-AVC
✦ Формат: MKV
✦ Видео: MPEG-4 AVC, 720x304, 23.976 fps, ~2 008 Kbps
✦ Аудио Rus: 48 kHz, AC3 Dolby Digital, 6 ch, ~384.00 kbps
General
Unique ID : 226609064217371425657529952776278176404 (0xAA7B51787A11AE489F484F482C0EF294)
Complete name : G:\Два нуля (2004).mkv
Format : Matroska
Format version : Version 2
File size : 1.44 GiB
Duration : 1h 26mn
Overall bit rate : 2 380 Kbps
Encoded date : UTC 2013-12-04 15:44:21
Writing application : mkvmerge v2.9.8 ('C'est le bon') built on Nov 20 2009 13:01:15
Writing library : libebml v0.7.9 + libmatroska v0.8.1

Video
ID : 1
Format : AVC
Format/Info : Advanced Video Codec
Format profile : High@L4.1
Format settings, CABAC : Yes
Format settings, ReFrames : 5 frames
Codec ID : V_MPEG4/ISO/AVC
Duration : 1h 26mn
Bit rate : 2 008 Kbps
Width : 720 pixels
Height : 304 pixels
Display aspect ratio : 2.35:1
Frame rate mode : Constant
Frame rate : 23.976 fps
Color space : YUV
Chroma subsampling : 4:2:0
Bit depth : 8 bits
Scan type : Progressive
Bits/(Pixel*Frame) : 0.383
Stream size : 1.18 GiB (82%)
Writing library : x264 core 79 r1342kMod e8501ef
Encoding settings : cabac=1 / ref=5 / deblock=1:-2:-2 / analyse=0x3:0x113 / me=umh / subme=7 / psy=1 / psy_rd=1.0:0.0 / mixed_ref=1 / me_range=20 / chroma_me=1 / trellis=1 / 8x8dct=1 / cqm=0 / deadzone=21,11 / chroma_qp_offset=-2 / threads=6 / nr=0 / decimate=1 / mbaff=0 / constrained_intra=0 / bframes=4 / b_pyramid=0 / b_adapt=1 / b_bias=0 / direct=3 / wpredb=1 / wpredp=2 / keyint=250 / keyint_min=25 / scenecut=40 / rc_lookahead=40 / rc=2pass / mbtree=1 / bitrate=2008 / ratetol=1.0 / qcomp=0.60 / qpmin=10 / qpmax=51 / qpstep=4 / cplxblur=20.0 / qblur=0.5 / ip_ratio=1.40 / aq=1:1.00
Default : Yes
Forced : No

Audio
ID : 2
Format : AC-3
Format/Info : Audio Coding 3
Mode extension : CM (complete main)
Format settings, Endianness : Big
Codec ID : A_AC3
Duration : 1h 26mn
Bit rate mode : Constant
Bit rate : 384 Kbps
Channel(s) : 6 channels
Channel positions : Front: L C R, Side: L R, LFE
Sampling rate : 48.0 KHz
Compression mode : Lossy
Stream size : 238 MiB (16%)
Default : Yes
Forced : No
скриншот   скриншот   скриншот  
pb.wtf



Скачать Два нуля через торрент http://i58.fastpic.ru/big/2013/1204/62/96fc1199b0aec2f8526e8a8ee71d1a62.jpg Скачать фильм Два нуля через торрент бесплантно в хорошем качестве О фильме:Бен и Вилл — самые бездарные агенты, полные нули, круглые идиоты. Кому же еще поручить суперсложное, сверхсекретное задание? Глава ... 10 10 2
Торрент: Зарегистрирован [2021-02-26 17:58] · скачан: 24 раз
Статус: √ проверено
Размер: 1.44 GB
Как cкачать? Как скачать Два нуля через торрент | UTorrent

28-11-2019 20:33  

Отключить всю рекламу на сайте

    Дорогой пользователь! Огромная просьба, поблагодарите релизера, оцените раздачу и оставьте свои комментарий, если Вы скачали Два нуля через торрент бесплатно! Внесите свою лепту в развитие PiratBit!
    Комментировать посты могут только пользователи прошедшие не сложную регистрацию
    Показать сообщения:    

    Два нуля через торрент
    Скачать бесплатно Два нуля
    Два нуля скачать торрент
    Два нуля смотреть онлайн
    Cкачать фильм Два нуля бесплатно
    Два нуля скачать торрент в хорошем качестве
    Два нуля смотреть онлайн бесплатно в хорошем качестве


    Вы не можете начинать темы
    Вы не можете отвечать на сообщения
    Вы не можете редактировать свои сообщения
    Вы не можете удалять свои сообщения
    Вы не можете голосовать в опросах
    Вы не можете прикреплять файлы к сообщениям
    Вы можете скачивать файлы