Лицензия

MVO

1

1 сезон

Лицензия

Лицензия

13

MVO

1 сезон

Deluxe Edition

pack

Рекомендуем

30

Repack

ВАЖНО

ВАЖНО

Ghostwire

RePack

jed

RePack

fifa19

RePack

RDR2

RePack

NEED FOR SPEED™ PAYBACK

RePack

Кинопоиск HD

 Острые козырьки 6 сезон

6 сезон

FAR CRY 6

RePack

Лицензия

MVO

1

1 сезон

1 сезон

Лицензия

  

Черная месса / Серии: 1-4 из 4 (Артём Насыбулин) [2021, Детектив, SATRip]

Черная месса через торрент pb.wtf

Размер: 2.32 GB | Добавлен: 1 год 6 мес. назад | Торрент скачан:39 раз
Смотреть онлайн Черная месса | Скачать   

28-02-2021 15:34 Черная месса Скачать торрент  

Черная месса
Год выпуска: 2021
Страна: Россия
Производство: ООО «Марс Медиа Энтертейнмент», Кинокомпания «Сигма»
Жанр: Детектив
Продолжительность: ~ 00:45:00 серия
Субтитры: отсутствуют

Режиссер: Артём Насыбулин



В ролях: Елена Великанова, Максим Щёголев, Любовь Германова, Валерий Сторожик, Сергей Подольный, Виктория Герасимова, Максим Сапрыкин, Леся Кудряшова, Глафира Лебедева, Полина Белова (II), Алексей Фаддеев, Александр Кузнецов (X), Дмитрий Грачёв (II), Евгений Пилипенко, Екатерина Сеничкина

Описание: По мотивам одноименного романа Анны Малышевой. Фильм тринадцатый из серии "Саша Корзухина". Александра Корзухина помогает Андрею Грекову расследовать загадочное убийство музыковеда Гладилина: его тело в концертном фраке обнаружили сидящим за роялем и «играющим» при свете свечей. Александра предполагает, что гибель музыковеда связана с творчеством великого композитора-мистика Александра Скрябина. В последние годы жизни он мечтал воплотить самое необыкновенное действо из всех видов искусств — музыки, танца, пения, архитектуры, живописи. Его мистерия должна была начать отсчет времени нового идеального мира. Но Скрябин так и не успел осуществить свою идею. И теперь за его тайным завещанием, оставленным ученикам, охотится безумец-преступник. Чтобы остановить убийцу, Корзухина должна первой разгадать тайну «завещания» Скрябина.

Качество: SATRip
Формат: AVI

Видео: XviD, 720x400, ~ 1700 Кбит/с, 0.235 bit/pixel, 25 Кадр/с
Аудио: МР3, 48,0 КГц, 2 ch, 192 Кбит/с
скриншот  скриншот  скриншот  скриншот  

Общее
Полное имя : D:\Chernaya.Messa.XviD.2020.SATRip.7turza\01.Chernaya.Messa.XviD.2020.SATRip.7turza.avi
Формат : AVI
Формат/Информация : Audio Video Interleave
Размер файла : 594 Мбайт
Продолжительность : 43 м. 44 с.
Общий поток : 1899 Кбит/сек
Название фильма : 01.Chernaya.Messa.XviD.2020.SATRip.7turza
Программа кодирования : Lavf58.45.100

Видео
Идентификатор : 0
Формат : MPEG-4 Visual
Профиль формата : Advanced [email protected]
Настройки формата : BVOP1
Параметр BVOP формата : 1
Параметр QPel формата : Нет
Параметр GMC формата : Без точки перехода
Параметр матрицы формата : Default (MPEG)
Идентификатор кодека : XVID
Идентификатор кодека/Подсказка : XviD
Продолжительность : 43 м. 44 с.
Битрейт : 1695 Кбит/сек
Ширина : 720 пикселей
Высота : 400 пикселей
Соотношение сторон : 16:9
Частота кадров : 25,000 кадров/сек
Цветовое пространство : YUV
Субдискретизация насыщенности : 4:2:0
Битовая глубина : 8 бит
Тип развёртки : Прогрессивная
Метод сжатия : С потерями
Бит/(Пиксели*Кадры) : 0.235
Размер потока : 530 Мбайт (89%)
Библиотека кодирования : XviD 69

Аудио
Идентификатор : 1
Формат : MPEG Audio
Версия формата : Version 1
Профиль формата : Layer 3
Настройки формата : Joint stereo
Идентификатор кодека : 55
Идентификатор кодека/Подсказка : MP3
Продолжительность : 43 м. 44 с.
Вид битрейта : Постоянный
Битрейт : 192 Кбит/сек
Каналы : 2 канала
Частота : 48,0 КГц
Метод сжатия : С потерями
Размер потока : 60,1 Мбайт (10%)
Выравнивание : Соединение по промежуткам
Продолжительность промежутка : 24 мс. (0,60 видеокадр)
Библиотека кодирования : LAME3.10§.ð(òjõAC




Скачать Черная месса через торрент https://a.radikal.ru/a32/2102/a6/96e4e355ef17.jpg Скачать, смотреть онлайн Черная месса бесплантно в хорошем качестве Описание: По мотивам одноименного романа Анны Малышевой. Фильм тринадцатый из серии "Саша Корзухина". Александра Корзухина помогает Андрею ... 10 10 4
Торрент: Зарегистрирован [2021-02-28 15:34] · скачан: 39 раз
Статус: √ проверено
Размер: 2.32 GB
Как cкачать? Как скачать Черная месса через торрент | UTorrent

% Раздел Тема Автор DL S | L
Наши сериалы [ 2.24 GB ] Черная месса / Серии: 1-4 из 4 | | DLRip-AVC bober100 Скачать
1 | 0
Наши сериалы [ 2.25 GB ] Черная месса / Серии: 1-4 из 4 | | DLRip bober100 Скачать
1 | 0
Наши сериалы [ 7.09 GB ] Черная месса / Серии: 1-4 из 4 | | HDTV 1080i bober100 Скачать
1 | 0

28-11-2019 20:33  

Отключить вcю реклaмy на сайте

    Дорогой пользователь! Огромная просьба, поблагодарите релизера, оцените раздачу и оставьте свои комментарий, если Вы скачали Черная месса через торрент бесплатно!!
    Комментировать посты могут только пользователи прошедшие не сложную регистрацию
    Показать сообщения:    


    Черная месса через торрент
    Скачать бесплатно Черная месса
    Черная месса скачать торрент
    Черная месса смотреть онлайн
    Cкачать фильм Черная месса бесплатно
    Черная месса скачать торрент в хорошем качестве
    Черная месса смотреть онлайн бесплатно в хорошем качестве
    Вы не можете начинать темы
    Вы не можете отвечать на сообщения
    Вы не можете редактировать свои сообщения
    Вы не можете удалять свои сообщения
    Вы не можете голосовать в опросах
    Вы не можете прикреплять файлы к сообщениям
    Вы можете скачивать файлы