1 сезон

1 сезон

iTunes

1

КиноПоиск HD

Кинопоиск HD

iTunes

13

1 сезон

RePack

30

Новинка

ВАЖНО

ИГРА 18+

pack

RePack

MK11
pack

Легкие деньги

RePack

jed

RePack

fifa19

RePack

RDR2

RePack

NEED FOR SPEED™ PAYBACK

4 сезон

9 сезон

Бесстыжие 9 сезон

Все сериалы

все сериалы на PB.wtf

RePack

FAR CRY 5
  
Magnet ссылка

Том и Джерри / Tom and Jerry (Тим Стори) [2021, комедия, приключения, семейный, мультфильм, WEB-DL 1080p] [DUB] [iTunes] pb.wtf

Том и Джерри через торрент pb.wtf

Раздают: 20 [ 715 KB/s ]
Размер: 7.28 GB | Добавлен: 18 д. назад | Торрент скачан:230 раз
Скачать  

28-02-2021 20:26 Том и Джерри Скачать торрент  

Том и Джерри / Tom and Jerry Год выпуска: 2021
Страна: Великобритания, Франция, Германия, США
Студия: Hanna-Barbera Productions, Keylight Productions, Metro-Goldwyn-Mayer, Warner Animation Group
Жанр: Комедия, приключения, семейный, анимация
Продолжительность: 01:41:02
Перевод: Профессиональный (дублированный) *iTunes *
Субтитры: Русские, английские

Режиссер: Тим Стори / Tim Story

В ролях: Хлоя Грейс Морец, Майкл Пенья, Том, Джерри, Джордан Болджер, Роб Делани, Пэтси Ферран, Паллави Шарда, Колин Жост, Соми Гуха, Аджай Чабра, Патрик Полетти, Дженис Ахерн, Камилла Арведсон, Кен Жонг, Джо Боун, Брайан Бовелл

Описание: Кайла Форестер - молодая девушка, которая никак не может найти работу. Из-за этого она идёт на обман, ворует резюме одной женщины которую встретила в отеле и выдаёт её резюме за своё. Её берут сразу же на работу и тут ей предстоит сразу испытание - устроить свадьбу миллиардеров с очень экзотическими вкусами и требованиями. Она справляется с работой прекрасно, но тут ... в отеле появляется мышь Джерри, которая ворует у постояльцев драгоценности и ворует еду на кухне. Как известно - мышь в отеле, это полнейшая антисанитария, это может погубить репутацию отеля. Хлоя нанимает на работу кота Тома (тем самым наживая себе врага), чтобы тот изловил мышь, но не всё так просто и мышь просто так не даст себя в обиду. К тому же, у постояльцев есть собака по кличке Спайк, которая очень не любит котов.
rating

Тип релиза: WEB-DL 1080p
Контейнер: MKV

Видео: MPEG-4 AVC, 9158 Kбит/с, 1920x1040
Аудио 1: Русский, АС3, 6 Ch, 48 kHz, 384 kbps / Дубляж
Аудио 2: Английский (ENG), E-AC3 Dolby Atmos, 5.1, 48 kHz, 768 kbps / Оригинал
Формат субтитров: softsub (SRT)
General
Unique ID : 200779133611003890389582307178963093321 (0x970CA791701862AA41F2E4F876754749)
Complete name : F:\Video\Tom.and.Jerry.2021.AMZN.WEB-DL.1080p.seleZen.mkv
Format : Matroska
Format version : Version 4
File size : 7.28 GiB
Duration : 1 h 41 min
Overall bit rate : 10.3 Mb/s
Movie name : Tom and Jerry 2021 from seleZen
Encoded date : UTC 2021-03-24 18:04:43
Writing application : mkvmerge v55.0.0 ('Waiting For Space') 64-bit
Writing library : libebml v1.4.2 + libmatroska v1.6.4

Video
ID : 1
Format : AVC
Format/Info : Advanced Video Codec
Format profile : High@L4
Format settings : CABAC / 4 Ref Frames
Format settings, CABAC : Yes
Format settings, Reference : 4 frames
Codec ID : V_MPEG4/ISO/AVC
Duration : 1 h 41 min
Bit rate mode : Constant
Bit rate : 9 158 kb/s
Nominal bit rate : 10 000 kb/s
Width : 1 920 pixels
Height : 1 040 pixels
Display aspect ratio : 1.85:1
Frame rate mode : Constant
Frame rate : 23.976 (24000/1001) FPS
Color space : YUV
Chroma subsampling : 4:2:0
Bit depth : 8 bits
Scan type : Progressive
Bits/(Pixel*Frame) : 0.191
Stream size : 6.46 GiB (89%)
Language : English
Default : Yes
Forced : No
Color range : Limited
Color primaries : BT.709
Transfer characteristics : BT.709
Matrix coefficients : BT.709

Audio #1
ID : 2
Format : AC-3
Format/Info : Audio Coding 3
Commercial name : Dolby Digital
Codec ID : A_AC3
Duration : 1 h 41 min
Bit rate mode : Constant
Bit rate : 384 kb/s
Channel(s) : 6 channels
Channel layout : L R C LFE Ls Rs
Sampling rate : 48.0 kHz
Frame rate : 31.250 FPS (1536 SPF)
Compression mode : Lossy
Stream size : 277 MiB (4%)
Title : Dub
Language : Russian
Service kind : Complete Main
Default : Yes
Forced : Yes

Audio #2
ID : 3
Format : E-AC-3 JOC
Format/Info : Enhanced AC-3 with Joint Object Coding
Commercial name : Dolby Digital Plus with Dolby Atmos
Codec ID : A_EAC3
Duration : 1 h 41 min
Bit rate mode : Constant
Bit rate : 768 kb/s
Channel(s) : 6 channels
Channel layout : L R C LFE Ls Rs
Sampling rate : 48.0 kHz
Frame rate : 31.250 FPS (1536 SPF)
Compression mode : Lossy
Stream size : 555 MiB (7%)
Title : Original
Language : English
Service kind : Complete Main
Default : No
Forced : No
Complexity index : 16
Number of dynamic objects : 15
Bed channel count : 1 channel
Bed channel configuration : LFE

Text #1
ID : 4
Format : UTF-8
Codec ID : S_TEXT/UTF8
Codec ID/Info : UTF-8 Plain Text
Duration : 1 h 37 min
Bit rate : 5 b/s
Count of elements : 96
Stream size : 4.25 KiB (0%)
Title : Forced
Language : Russian
Default : Yes
Forced : Yes

Text #2
ID : 5
Format : UTF-8
Codec ID : S_TEXT/UTF8
Codec ID/Info : UTF-8 Plain Text
Duration : 1 h 40 min
Bit rate : 105 b/s
Count of elements : 1531
Stream size : 78.0 KiB (0%)
Title : Full
Language : Russian
Default : No
Forced : No

Text #3
ID : 6
Format : UTF-8
Codec ID : S_TEXT/UTF8
Codec ID/Info : UTF-8 Plain Text
Duration : 1 h 40 min
Bit rate : 79 b/s
Count of elements : 1916
Stream size : 58.6 KiB (0%)
Title : Full
Language : English
Default : No
Forced : No

Text #4
ID : 7
Format : UTF-8
Codec ID : S_TEXT/UTF8
Codec ID/Info : UTF-8 Plain Text
Duration : 1 h 40 min
Bit rate : 94 b/s
Count of elements : 2266
Stream size : 69.4 KiB (0%)
Title : SDH
Language : English
Default : No
Forced : No
скриншот  скриншот  скриншот  
pb.wtf



Скачать Том и Джерри через торрент https://i114.fastpic.ru/big/2021/0228/bb/79aa315f1e2f5096bdefd0b4ea2954bb.jpeg Скачать фильм Том и Джерри через торрент бесплантно в хорошем качестве Описание: Кайла Форестер - молодая девушка, которая никак не может найти работу. Из-за этого она идёт на обман, ворует резюме одной женщины ... 9.7 10 36
Торрент: Зарегистрирован [2021-03-24 19:47] · скачан: 230 раз
Статус: √ проверено
Размер: 7.28 GB
Как cкачать? Как скачать Том и Джерри через торрент | UTorrent

% Раздел Тема Автор DL S | L
Иностранные мультфильмы [ 1.46 GB ] Том и Джерри / Tom and Jerry [2021 мультфильм WEB-DLRip] - Twi7ter Скачать
460 | 20
Иностранные мультфильмы [ 1.45 GB ] Том и Джерри / Tom and Jerry [2021 мультфильм WEB-DLRip-AVC] DUB [Line] от MediaBit Lithuania Скачать
9 | 1
Ultra HD (UHD: 2K, 4K, 8K) [ 13.42 GB ] Том и Джерри / Tom and Jerry [2021 мультфильм WEB-DL 2160p HDR] killermax2013 Скачать
4 | 0
Фильмы без перевода [ 3.41 GB ] Том и Джерри / Tom and Jerry [2021 мультфильм WEB-DLRip 1080p] Sub killermax2013 Скачать
3 | 0
T Иностранные мультфильмы [ 1.46 GB ] Том и Джерри / Tom and Jerry [2021 мультфильм WEB-DLRip] [Line] killermax2013 Скачать
8 | 0
Зарубежные Мультфильмы (BDRip 1080p, 720p, Blu-ray, BD-Remux) [ 5.78 GB ] Том и Джерри: Полет на Марс / Tom and Jerry Blast Off to Mars! [2005 Мультфильм BDRip 1080p] MVO+2xAVO bober100 Скачать
1 | 1
T Иностранные мультфильмы [ 1.37 GB ] Том и Джерри: Вилли Вонка и шоколадная фабрика / Tom and Jerry: Willy Wonka and the Chocolate Factory [2017 мультфильм WEB-DLRip Любительский | КОЛОБОК] - ExKinoRay Enigma2010 Скачать
3 | 0


Последний раз редактировалось: killermax2013 (2021-03-24 19:51), всего редактировалось 4 раз(а)

28-11-2019 20:33  

Отключить всю рекламу на сайте

01-03-2021 19:32 Том и Джерри Скачать торрент  

Смотрел в кинотеатре. 3 из 5pb.wtf



11-03-2021 19:07 Том и Джерри Скачать торрент  

ну и поносpb.wtf



    Дорогой пользователь! Огромная просьба, поблагодарите релизера, оцените раздачу и оставьте свои комментарий, если Вы скачали Том и Джерри через торрент бесплатно! Внесите свою лепту в развитие PiratBit!
    Комментировать посты могут только пользователи прошедшие не сложную регистрацию
    Показать сообщения:    

    Том и Джерри через торрент
    Скачать бесплатно Том и Джерри
    Том и Джерри скачать торрент
    Том и Джерри смотреть онлайн
    Cкачать фильм Том и Джерри бесплатно
    Том и Джерри скачать торрент в хорошем качестве
    Том и Джерри смотреть онлайн бесплатно в хорошем качестве


    Вы не можете начинать темы
    Вы не можете отвечать на сообщения
    Вы не можете редактировать свои сообщения
    Вы не можете удалять свои сообщения
    Вы не можете голосовать в опросах
    Вы не можете прикреплять файлы к сообщениям
    Вы можете скачивать файлы