Доктор Стрэндж

Лицензия

Добыча

Дубляж

Дом дракона

1 сезон

Тор

Дубляж

В эфире

Дубляж

Там, где раки поют

MVO

Властелин колец

1 сезон

Ultimate

pack

Рекомендуем

30

Пиратка

ВАЖНО

ВАЖНО

Ghostwire

Пиратка

jed

RePack

nioh2

RePack

RDR2

RePack

NEED FOR SPEED™ PAYBACK

RePack

скачать торрент

Кинопоиск HD

Острые козырьки 6 сезон

6 сезон

FAR CRY 6

RePack

скачать торрент

Лицензия

скачать торрент

MVO

1

1 сезон

скачать торрент

1 сезон

скачать торрент

Лицензия

  

Черная месса / Серии: 1-4 из 4 (Артём Насыбулин) [2021, Детектив, HDTV 1080i]

Черная месса через торрент pb.wtf

Размер: 7.09 GB | Добавлен: 1 год 8 мес. назад | Торрент скачан:35 раз
Смотреть онлайн | Скачать   

01-03-2021 02:19 Черная месса Скачать торрент  

Черная месса
Год выпуска: 2021
Страна: Россия
Производство: ООО «Марс Медиа Энтертейнмент», Кинокомпания «Сигма»
Жанр: Детектив
Продолжительность: ~ 00:45:00 серия
Субтитры: отсутствуют

Режиссер: Артём Насыбулин



В ролях: Елена Великанова, Максим Щёголев, Любовь Германова, Валерий Сторожик, Сергей Подольный, Виктория Герасимова, Максим Сапрыкин, Леся Кудряшова, Глафира Лебедева, Полина Белова (II), Алексей Фаддеев, Александр Кузнецов (X), Дмитрий Грачёв (II), Евгений Пилипенко, Екатерина Сеничкина

Описание: По мотивам одноименного романа Анны Малышевой. Фильм тринадцатый из серии "Саша Корзухина". Александра Корзухина помогает Андрею Грекову расследовать загадочное убийство музыковеда Гладилина: его тело в концертном фраке обнаружили сидящим за роялем и «играющим» при свете свечей. Александра предполагает, что гибель музыковеда связана с творчеством великого композитора-мистика Александра Скрябина. В последние годы жизни он мечтал воплотить самое необыкновенное действо из всех видов искусств — музыки, танца, пения, архитектуры, живописи. Его мистерия должна была начать отсчет времени нового идеального мира. Но Скрябин так и не успел осуществить свою идею. И теперь за его тайным завещанием, оставленным ученикам, охотится безумец-преступник. Чтобы остановить убийцу, Корзухина должна первой разгадать тайну «завещания» Скрябина.

Качество: HDTV 1080i
Формат: TS

Видео: MPEG-4 AVC, ~ 5400 Кбит/с, 1920x1080, 25 кадр/с
Аудио: Русский (MP2, 2 ch, 192 Кбит/с)
скриншот  скриншот  скриншот  скриншот  

Общее
Идентификатор : 1 (0x1)
Полное имя : C:\Chyornaya.messa.2020.HDTV.1080i\Chyornaya.messa.01.2020.HDTV.1080i.ts
Формат : MPEG-TS
Размер файла : 1,77 Гбайт
Продолжительность : 43 м. 39 с.
Режим общего битрейта : Переменный
Общий поток : 5819 Кбит/сек

Видео
Идентификатор : 3321 (0xCF9)
Идентификатор меню : 1553 (0x611)
Формат : AVC
Формат/Информация : Advanced Video Codec
Профиль формата : [email protected]
Настройки формата : CABAC / 2 Ref Frames
Параметр CABAC формата : Да
Параметр RefFrames формата : 2 кадра
Параметр GOP формата : M=4, N=25
Идентификатор кодека : 27
Продолжительность : 43 м. 39 с.
Вид битрейта : Постоянный
Битрейт : 5400 Кбит/сек
Ширина : 1920 пикселей
Высота : 1080 пикселей
Соотношение сторон : 16:9
Частота кадров : 25,000 кадров/сек
Стандарт вещания : PAL
Цветовое пространство : YUV
Субдискретизация насыщенности : 4:2:0
Битовая глубина : 8 бит
Тип развёртки : Чересстрочная
Метод сохранения типа развёртки : Раздельные поля
Порядок развёртки : Верхнее поле первое
Бит/(Пиксели*Кадры) : 0.104
Размер потока : 1,63 Гбайт (92%)
Цветовой диапазон : Limited
Основные цвета : BT.709
Характеристики трансфера : BT.709
Коэффициенты матрицы : BT.709

Аудио
Идентификатор : 3322 (0xCFA)
Идентификатор меню : 1553 (0x611)
Формат : MPEG Audio
Версия формата : Version 1
Профиль формата : Layer 2
Идентификатор кодека : 3
Продолжительность : 43 м. 39 с.
Вид битрейта : Постоянный
Битрейт : 192 Кбит/сек
Каналы : 2 канала
Частота : 48,0 КГц
Частота кадров : 41,667 кадра/сек (1152 SPF)
Метод сжатия : С потерями
Размер потока : 60,0 Мбайт (3%)
Язык : English




Скачать Черная месса через торрент https://a.radikal.ru/a32/2102/a6/96e4e355ef17.jpg Скачать, смотреть онлайн Черная месса бесплантно в хорошем качестве Описание: По мотивам одноименного романа Анны Малышевой. Фильм тринадцатый из серии "Саша Корзухина". Александра Корзухина помогает Андрею ... 9.7 10 3
Торрент: Зарегистрирован [2021-03-01 02:19] · скачан: 35 раз
Статус: √ проверено
Размер: 7.09 GB
Как cкачать? Как скачать Черная месса через торрент | UTorrent

% Раздел Тема Автор DL S | L
Наши сериалы [ 2.24 GB ] Черная месса / Серии: 1-4 из 4 | | DLRip-AVC bober100 Скачать
1 | 0
Наши сериалы [ 2.25 GB ] Черная месса / Серии: 1-4 из 4 | | DLRip bober100 Скачать
1 | 0
Наши сериалы [ 2.32 GB ] Черная месса / Серии: 1-4 из 4 | | SATRip bober100 Скачать
1 | 0

28-11-2019 20:33  


Отключить вcю реклaмy на сайте, в т.ч. и в плеере онлайн просмотра!

    Дорогой пользователь! Огромная просьба, поблагодарите релизера, оцените раздачу и оставьте свои комментарий, если Вы скачали Черная месса через торрент бесплатно!!
    Комментировать посты могут только пользователи прошедшие не сложную регистрацию
    Показать сообщения:    


    Черная месса через торрент
    Скачать бесплатно Черная месса
    Черная месса скачать торрент
    Черная месса смотреть онлайн
    Cкачать фильм Черная месса бесплатно
    Черная месса скачать торрент в хорошем качестве
    Черная месса смотреть онлайн бесплатно в хорошем качестве
    Вы не можете начинать темы
    Вы не можете отвечать на сообщения
    Вы не можете редактировать свои сообщения
    Вы не можете удалять свои сообщения
    Вы не можете голосовать в опросах
    Вы не можете прикреплять файлы к сообщениям
    Вы можете скачивать файлы
    Черная месса / Серии: 1-4 из 4 [2021, Детектив, HDTV 1080i] смотреть онлайн, скачать торрент picoco.icu