Доктор Стрэндж

Лицензия

Добыча

Дубляж

Дом дракона

1 сезон

Тор

Дубляж

В эфире

Дубляж

Там, где раки поют

MVO

Властелин колец

1 сезон

Deluxe

pack

Рекомендуем

30

Пиратка

ВАЖНО

ВАЖНО

Ghostwire

Пиратка

jed

RePack

nioh2

RePack

RDR2

RePack

NEED FOR SPEED™ PAYBACK

RePack

скачать торрент

Кинопоиск HD

Острые козырьки 6 сезон

6 сезон

FAR CRY 6

RePack

скачать торрент

Лицензия

скачать торрент

MVO

1

1 сезон

скачать торрент

1 сезон

скачать торрент

Лицензия

  

Легенды ночных стражей / Legend of the Guardians: The Owls of Ga’Hoole (Зак Снайдер / Zack Snyder) [2010, мультфильм, фэнтези, приключения, BDRemux 1080p]

Легенды ночных стражей через торрент pb.wtf

Размер: 17.41 GB | Добавлен: 11 лет назад | Торрент скачан:458 раз
Смотреть онлайн | Скачать   

09-02-2011 17:41 Легенды ночных стражей Скачать торрент  


Уважительная просьба всем кто,собирается качать или уже качает эту раздачу,когда раздающих меньше 1-ого на протяжение 24 часов
жать вот эту кнопку
==> <==,
а не ждать святого духа,который встанет на раздачу.



«On his way to finding a legend...he will become one.» Год выхода:2010
Выпущено:
Жанр: фэнтези, приключения, мультфильм
Продолжительность: 01:36:47
Перевод: Профессиональный (полное дублирование)
Режиссер:Зак Снайдер / Zack Snyder
В Ролях:
Джим Стерджесс, Джоэл Эдгертон, Хьюго Уивинг, Эдриэнн ДеФариа, Ричард Роксбург, Дэвид Уэнэм, Хелен Миррен, Мириам Марголис, Сэм Нил, Джеффри Раш


Описание:
Миром, в котором уже не осталось людей, правят совы… добрые… злые… как и всегда! В волшебном лесу - королевстве сов Тито - на Великом Дереве Га`Хуул, где разумные совы живут в гармонии, наступают мрачные времена. Королевство подвергается страшной опасности со стороны соседних жестоких правителей, и эта опасность грозит уничтожить привычное мироздание.

Доп. информация:
Качество: BDRemux
Формат: MKV
Видео кодек: H.264
Аудио кодек: DTS, AC3
Размер:17,4 ГБ (18 695 430 374 байт)
Видео: 21.8 Mbps, 1 920х1 080, 23.976 fps
Аудио#1:RU:AC-3, 640 kb/s, 6 канала(ов), 48,0 КГц |Дубляж, CEE|
Аудио#2: UK:AC-3, 640 kb/s, 6 канала(ов), 48,0 КГц |Дубляж, CEE|
Аудио#3: EN:DTS-MA 3904 kbps / 5.1 / 48 kHz / 24-bit (DTS Core: 5.1 / 48 kHz / 1509 kbps / 24-bit) |Оригинал|
Аудио#4: EN:AC-3, 640 kb/s, 6 канала(ов), 48,0 КГц |комментарии режиссёра|
Субтитры:
и многие другие



General
Unique ID : 228955354761628664517186868425195222763 (0xAC3F3286996BC2A4ACF8C8594F7376EB)
Complete name : D:\HD\Legend of the Guardians.2010.BD.Remux.1080p.H264.Rus.Eng.Commentary (1).mkv
Format : Matroska
File size : 17.4 GiB
Duration : 1h 36mn
Overall bit rate : 25.8 Mbps
Encoded date : UTC 2011-02-01 16:58:25
Writing application : mkvmerge v4.4.0 ('Die Wiederkehr') сборка от Oct 31 2010 21:52:48
Writing library : libebml v1.0.0 + libmatroska v1.0.0
Video
ID : 1
Format : AVC
Format/Info : Advanced Video Codec
Format profile : [email protected]
Format settings, CABAC : Yes
Format settings, ReFrames : 2 frames
Codec ID : V_MPEG4/ISO/AVC
Duration : 1h 36mn
Bit rate mode : Variable
Bit rate : 21.8 Mbps
Width : 1 920 pixels
Height : 1 080 pixels
Display aspect ratio : 16:9
Frame rate : 23.976 fps
Color space : YUV
Chroma subsampling : 4:2:0
Bit depth : 8 bits
Scan type : Progressive
Bits/(Pixel*Frame) : 0.438
Stream size : 14.7 GiB (84%)
Audio #1
ID : 2
Format : AC-3
Format/Info : Audio Coding 3
Mode extension : CM (complete main)
Codec ID : A_AC3
Duration : 1h 36mn
Bit rate mode : Constant
Bit rate : 640 Kbps
Channel(s) : 6 channels
Channel positions : Front: L C R, Side: L R, LFE
Sampling rate : 48.0 KHz
Bit depth : 16 bits
Compression mode : Lossy
Stream size : 443 MiB (2%)
Title : AC-3 640 Kbps |Дубляж CEE|
Language : Russian
Audio #2
ID : 3
Format : AC-3
Format/Info : Audio Coding 3
Mode extension : CM (complete main)
Codec ID : A_AC3
Duration : 1h 36mn
Bit rate mode : Constant
Bit rate : 640 Kbps
Channel(s) : 6 channels
Channel positions : Front: L C R, Side: L R, LFE
Sampling rate : 48.0 KHz
Bit depth : 16 bits
Compression mode : Lossy
Stream size : 443 MiB (2%)
Title : AC-3 640 Kbps |Дубляж CEE|
Language : Ukrainian
Audio #3
ID : 4
Format : DTS
Format/Info : Digital Theater Systems
Format profile : MA / Core
Codec ID : A_DTS
Duration : 1h 36mn
Bit rate mode : Variable
Bit rate : 1 561 Kbps / 1 510 Kbps
Channel(s) : 6 channels
Channel positions : Front: L C R, Side: L R, LFE
Sampling rate : 48.0 KHz
Bit depth : 24 bits
Compression mode : Lossless / Lossy
Title : DTS-MA 3904 kbps / 5.1 / 48 kHz / 24-bit (DTS Core: 5.1 / 48 kHz / 1509 kbps / 24-bit)
Language : English
Audio #4
ID : 5
Format : AC-3
Format/Info : Audio Coding 3
Mode extension : CM (complete main)
Codec ID : A_AC3
Duration : 1h 36mn
Bit rate mode : Constant
Bit rate : 640 Kbps
Channel(s) : 6 channels
Channel positions : Front: L C R, Side: L R, LFE
Sampling rate : 48.0 KHz
Bit depth : 16 bits
Compression mode : Lossy
Stream size : 443 MiB (2%)
Title : AC-3 640 Kbps |Commentary|
Language : English
Text #1
ID : 6
Format : UTF-8
Codec ID : S_TEXT/UTF8
Codec ID/Info : UTF-8 Plain Text
Title : Russian
Language : Russian
Text #2
ID : 7
Format : UTF-8
Codec ID : S_TEXT/UTF8
Codec ID/Info : UTF-8 Plain Text
Language : English
Text #3
ID : 8
Format : UTF-8
Codec ID : S_TEXT/UTF8
Codec ID/Info : UTF-8 Plain Text
Language : Bulgarian
Text #4
ID : 9
Format : UTF-8
Codec ID : S_TEXT/UTF8
Codec ID/Info : UTF-8 Plain Text
Language : Arabic
Text #5
ID : 10
Format : UTF-8
Codec ID : S_TEXT/UTF8
Codec ID/Info : UTF-8 Plain Text
Language : Chinese
Text #6
ID : 11
Format : UTF-8
Codec ID : S_TEXT/UTF8
Codec ID/Info : UTF-8 Plain Text
Language : Czech
Text #7
ID : 12
Format : UTF-8
Codec ID : S_TEXT/UTF8
Codec ID/Info : UTF-8 Plain Text
Language : Danish
Text #8
ID : 13
Format : UTF-8
Codec ID : S_TEXT/UTF8
Codec ID/Info : UTF-8 Plain Text
Language : Dutch
Text #9
ID : 14
Format : UTF-8
Codec ID : S_TEXT/UTF8
Codec ID/Info : UTF-8 Plain Text
Language : French
Text #10
ID : 15
Format : UTF-8
Codec ID : S_TEXT/UTF8
Codec ID/Info : UTF-8 Plain Text
Language : Greek
Text #11
ID : 16
Format : UTF-8
Codec ID : S_TEXT/UTF8
Codec ID/Info : UTF-8 Plain Text
Language : Polish
Text #12
ID : 17
Format : UTF-8
Codec ID : S_TEXT/UTF8
Codec ID/Info : UTF-8 Plain Text
Title : BR
Language : Portuguese
Text #13
ID : 18
Format : UTF-8
Codec ID : S_TEXT/UTF8
Codec ID/Info : UTF-8 Plain Text
Title : PT
Language : Portuguese
Text #14
ID : 19
Format : UTF-8
Codec ID : S_TEXT/UTF8
Codec ID/Info : UTF-8 Plain Text
Language : Romanian
Text #15
ID : 20
Format : UTF-8
Codec ID : S_TEXT/UTF8
Codec ID/Info : UTF-8 Plain Text
Language : Spanish
Text #16
ID : 21
Format : UTF-8
Codec ID : S_TEXT/UTF8
Codec ID/Info : UTF-8 Plain Text
Language : Swedish
Text #17
ID : 22
Format : UTF-8
Codec ID : S_TEXT/UTF8
Codec ID/Info : UTF-8 Plain Text
Language : Turkish
Text #18
ID : 23
Format : UTF-8
Codec ID : S_TEXT/UTF8
Codec ID/Info : UTF-8 Plain Text
Language : Vietnamese
Menu
00:00:00.000 : :Chapter 01
00:10:52.026 : :Chapter 02
00:20:10.417 : :Chapter 03
00:30:07.138 : :Chapter 04
00:40:01.273 : :Chapter 05
00:49:57.828 : :Chapter 06
01:00:34.297 : :Chapter 07
01:09:45.180 : :Chapter 08
01:18:58.149 : :Chapter 09
01:28:04.195 : :Chapter 10

В основу мультфильма легла серия книг Кэтрин Ласки «Ночные стражи».
скриншот  скриншот  скриншот  скриншот  скриншот  
© Оформление by .::Sergey::.



Скачать Легенды ночных стражей через торрент http://piratbit.in.ua/d7c77d24e19db5b3cd553328ece549da.jpg Скачать, смотреть онлайн Легенды ночных стражей бесплантно в хорошем качестве Описание: Миром, в котором уже не осталось людей, правят совы… добрые… злые… как и всегда! В волшебном лесу - королевстве сов Тито - на ... 7.8 10 4
Info! Золотая раздача, скачанное не засчитывается.
Торрент: Зарегистрирован [2011-02-09 17:41] · скачан: 458 раз
Статус: √ проверено
Размер: 17.41 GB
Как cкачать? Как скачать Легенды ночных стражей через торрент | UTorrent

% Раздел Тема Автор DL S | L
Мультфильмы (48-60 fps) [ 6.68 GB ] Легенды ночных стражей / Legend of the Guardians: The Owls of Ga’Hoole 60FPS | Дубляж | 720p,Профессиональный [Дубляж KEYS Скачать
1 | 0
3D Мультфильмы [ 12.99 GB ] Легенды ночных стражей 3Д / Legend of the Guardians: The Owls of Ga’Hoole 3D | | 1080p ACFIORENTINA Скачать
1 | 0
3D Мультфильмы [ 5.72 GB ] Легенды ночных стражей 3Д / Legend of the Guardians: The Owls of Ga’Hoole 3D | DUBois | 1080p ACFIORENTINA Скачать
1 | 0
Зарубежные Мультфильмы (DVD) [ 5.28 GB ] Легенды ночных стражей / Legend of the Guardians: The Owls of Ga’Hoole | | Легенды ночных стражей / Legend of the Guardians: The Owls of Ga’Hoole (Зак Снайдер / Zack Snyder voovaz Скачать
1 | 0

28-11-2019 20:33  


Отключить вcю реклaмy на сайте, в т.ч. и в плеере онлайн просмотра!

06-02-2012 20:00 Легенды ночных стражей Скачать торрент  

скриншоты неработают



17-07-2012 12:45 Легенды ночных стражей Скачать торрент  

дайте скорости...



16-09-2012 16:47 Легенды ночных стражей Скачать торрент  

Очень понравился мульт, спасибо огромное!



    Дорогой пользователь! Огромная просьба, поблагодарите релизера, оцените раздачу и оставьте свои комментарий, если Вы скачали Легенды ночных стражей через торрент бесплатно!!
    Комментировать посты могут только пользователи прошедшие не сложную регистрацию
    Показать сообщения:    


    Легенды ночных стражей через торрент
    Скачать бесплатно Легенды ночных стражей
    Легенды ночных стражей скачать торрент
    Легенды ночных стражей смотреть онлайн
    Cкачать фильм Легенды ночных стражей бесплатно
    Легенды ночных стражей скачать торрент в хорошем качестве
    Легенды ночных стражей смотреть онлайн бесплатно в хорошем качестве
    Вы не можете начинать темы
    Вы не можете отвечать на сообщения
    Вы не можете редактировать свои сообщения
    Вы не можете удалять свои сообщения
    Вы не можете голосовать в опросах
    Вы не можете прикреплять файлы к сообщениям
    Вы можете скачивать файлы
    Легенды ночных стражей / Legend of the Guardians: The Owls of Ga’Hoole [2010, мультфильм, фэнтези, приключения, BDRemux 1080p] смотреть онлайн, скачать торрент picoco.icu