Присоединяйтесь к нам в Telegram!, здесь всегда актуальный адрес сайта, оперативная поддержка и многое другое!!

>

5.9

iTunes

7.4

iTunes

9.4

1 сезон

1

7.4

2 сезон

7.2

iTunes

7.3

1 сезон

13

6.1

iTunes

8.3

GOG

30

ULTIMATE

pack

9.9

Лицензия

ВАЖНО

ИГРА 18+

pack

7.3

RePack

MK11

7.7

RePack

jed

7.8

RePack

fifa19

8.5

RePack

RDR2

RePack

NEED FOR SPEED™ PAYBACK

5 сезон

9 сезон

Бесстыжие 9 сезон

Все сериалы

все сериалы на PB.wtf

RePack

FAR CRY 5

Anonymous, добрый день, мы катастрофически не успеваем собрать деньги на оплату серверов, помогите нам пожалуйста 5,10,15р., для нас важна любая помощь . В качестве благодарности мы отключим Вам всю рекламу на сайте (укажите свой ник в строку Ваше имя)!

×
  
Magnet ссылка

Дьявол в деталях / The Little Things (Джон Ли Хэнкок) [2021, детектив, криминал, триллер, WEB-DLRip-AVC] [Dub] (Мосфильм-Мастер) pb.wtf

Дьявол в деталях через торрент pb.wtf

Раздают: 4 [ 0 KB/s ]
Размер: 3 GB | Добавлен: 9 мес. назад | Торрент скачан:509 раз
Смотреть онлайн Дьявол в деталях | Скачать    Ребята, помогите собрать деньги на оплату серверов!!!

01-03-2021 13:12 Дьявол в деталях Скачать торрент  

Дьявол в деталях / The Little Things
«Есть вещи, которые невозможно забыть»

Год выхода: 2021
Страна: США
Жанр: детектив, криминал, триллер
Продолжительность: 02:07:48
Перевод: Профессиональный (полное дублирование) «Мосфильм-Мастер»
Субтитры: Русские (форс., полные), Английские (полные, SDH)
Режиссер:
Джон Ли Хэнкок / John Lee Hancock
В ролях:
Дензел Вашингтон, Рами Малек, Джаред Лето, Кристофер Бауэр, Майкл Хайатт, Терри Кинни, Натали Моралес, Изабель Арраиса, Джорис Джарски, Гленн Моршауэр
О фильме:
Заместителя шерифа округа Керн Джо Дикона по прозвищу Дики отправляют в Лос-Анджелес – обычная командировка для сбора улик. Но там его привлекают к поискам серийного убийцы, который терроризирует город. Охоту на маньяка возглавляет Джим Бэкстер, сержант департамента шерифа Лос-Анджелеса. Его впечатляет полицейское чутье Дики, и он неофициально привлекает его к расследованию. Они всё ближе к цели, но Бэкстер не догадывается, что тем самым они воскрешают призраков прошлого Дики, раскрывая такие тайны, которые могут всколыхнуть куда более темные воды, чем его нынешнее дело.
rating
Сэмпл |
Качество: WEB-DLRp-AVC [The.Little.Things.2021.1080p.HMAX.WEB-DL.DDP5.1.Atmos.x264-CM]
Формат: MKV

Видео: 1108x464 (2,40:1), 23,976 fps, x264 ~2585 kbps avg, 0.210 bit/pixel
Аудио #1: 48 kHz, AC3 Dolby Digital, 3/2 (L,C,R,l,r) + LFE ch, ~384 kbps avg (RUS)
Аудио #2: 48 kHz, AC3 Dolby Digital, 3/2 (L,C,R,l,r) + LFE ch, ~384 kbps avg (ENG)
Формат субтитров: Softsub (.srt*)
скриншот  скриншот  скриншот  

Код:

Общее
Полное имя                               : D:\The_Little_Things_2021_WEB-DLRip-AVC_by_Dalemake.mkv
Формат                                   : Matroska
Версия формата                           : Version 4
Размер файла                             : 3,00 Гбайт
Продолжительность                        : 2 ч. 7 м.
Общий поток                              : 3356 Кбит/сек
Название фильма                          : [The_Little_Things_2021_All_Films_Rutracker]
Дата кодирования                         : UTC 2021-03-01 12:18:52
Программа кодирования                    : mkvmerge v44.0.0 ('Domino') 64-bit
Библиотека кодирования                   : libebml v1.3.10 + libmatroska v1.5.2
Attachments                              : Poster.jpg

Видео
Идентификатор                            : 1
Формат                                   : AVC
Формат/Информация                        : Advanced Video Codec
Профиль формата                          : High@L4.1
Настройки формата                        : CABAC / 12 Ref Frames
Параметр CABAC формата                   : Да
Параметр RefFrames формата               : 12 кадров
Идентификатор кодека                     : V_MPEG4/ISO/AVC
Продолжительность                        : 2 ч. 7 м.
Битрейт                                  : 2585 Кбит/сек
Ширина                                   : 1108 пикселей
Высота                                   : 464 пикселя
Соотношение сторон                       : 2,40:1
Режим частоты кадров                     : Постоянный
Частота кадров                           : 23,976 (24000/1001) кадра/сек
Цветовое пространство                    : YUV
Субдискретизация насыщенности            : 4:2:0
Битовая глубина                          : 8 бит
Тип развёртки                            : Прогрессивная
Бит/(Пиксели*Кадры)                      : 0.210
Размер потока                            : 2,31 Гбайт (77%)
Заголовок                                : [The_Little_Things_2021_All_Films_Rutracker]
Библиотека кодирования                   : x264 core 160 r3009 4c9b076
Настройки программы                      : cabac=1 / ref=12 / deblock=1:-2:-2 / analyse=0x3:0x113 / me=umh / subme=11 / psy=1 / psy_rd=1.00:0.10 / mixed_ref=1 / me_range=32 / chroma_me=1 / trellis=2 / 8x8dct=1 / cqm=0 / deadzone=21,11 / fast_pskip=0 / chroma_qp_offset=-5 / threads=6 / lookahead_threads=1 / sliced_threads=0 / nr=0 / decimate=1 / interlaced=0 / bluray_compat=0 / constrained_intra=0 / bframes=10 / b_pyramid=2 / b_adapt=2 / b_bias=0 / direct=3 / weightb=1 / open_gop=0 / weightp=2 / keyint=240 / keyint_min=23 / scenecut=40 / intra_refresh=0 / rc_lookahead=60 / rc=crf / mbtree=0 / crf=18.3 / qcomp=0.60 / qpmin=0 / qpmax=69 / qpstep=4 / vbv_maxrate=78125 / vbv_bufsize=62500 / crf_max=0.0 / nal_hrd=none / filler=0 / ip_ratio=1.40 / pb_ratio=1.35 / aq=1:1.00
Язык                                     : English
Default                                  : Да
Forced                                   : Нет

Аудио #1
Идентификатор                            : 2
Формат                                   : AC-3
Формат/Информация                        : Audio Coding 3
Коммерческое название                    : Dolby Digital
Идентификатор кодека                     : A_AC3
Продолжительность                        : 2 ч. 7 м.
Вид битрейта                             : Постоянный
Битрейт                                  : 384 Кбит/сек
Каналы                                   : 6 каналов
ChannelLayout                            : L R C LFE Ls Rs
Частота                                  : 48,0 КГц
Частота кадров                           : 31,250 кадров/сек (1536 SPF)
Битовая глубина                          : 16 бит
Метод сжатия                             : С потерями
Размер потока                            : 351 Мбайт (11%)
Заголовок                                : Dub - Mosfilm-Master
Язык                                     : Russian
ServiceKind/String                       : Complete Main
Default                                  : Да
Forced                                   : Нет

Аудио #2
Идентификатор                            : 3
Формат                                   : AC-3
Формат/Информация                        : Audio Coding 3
Коммерческое название                    : Dolby Digital
Идентификатор кодека                     : A_AC3
Продолжительность                        : 2 ч. 7 м.
Вид битрейта                             : Постоянный
Битрейт                                  : 384 Кбит/сек
Каналы                                   : 6 каналов
ChannelLayout                            : L R C LFE Ls Rs
Частота                                  : 48,0 КГц
Частота кадров                           : 31,250 кадров/сек (1536 SPF)
Битовая глубина                          : 16 бит
Метод сжатия                             : С потерями
Размер потока                            : 351 Мбайт (11%)
Заголовок                                : Original
Язык                                     : English
ServiceKind/String                       : Complete Main
Default                                  : Нет
Forced                                   : Нет

Текст #1
Идентификатор                            : 4
Формат                                   : UTF-8
Идентификатор кодека                     : S_TEXT/UTF8
Идентификатор кодека/Информация          : UTF-8 Plain Text
Продолжительность                        : 2 ч. 1 м.
Битрейт                                  : 3 бит/сек
ElementCount                             : 70
Размер потока                            : 3,06 Кбайт (0%)
Заголовок                                : Forced
Язык                                     : Russian
Default                                  : Да
Forced                                   : Нет

Текст #2
Идентификатор                            : 5
Формат                                   : UTF-8
Идентификатор кодека                     : S_TEXT/UTF8
Идентификатор кодека/Информация          : UTF-8 Plain Text
Продолжительность                        : 1 ч. 59 м.
Битрейт                                  : 75 бит/сек
ElementCount                             : 1277
Размер потока                            : 66,4 Кбайт (0%)
Заголовок                                : Full - FOCS
Язык                                     : Russian
Default                                  : Нет
Forced                                   : Нет

Текст #3
Идентификатор                            : 6
Формат                                   : UTF-8
Идентификатор кодека                     : S_TEXT/UTF8
Идентификатор кодека/Информация          : UTF-8 Plain Text
Продолжительность                        : 1 ч. 59 м.
Битрейт                                  : 41 бит/сек
ElementCount                             : 1315
Размер потока                            : 36,1 Кбайт (0%)
Заголовок                                : Full
Язык                                     : English
Default                                  : Нет
Forced                                   : Нет

Текст #4
Идентификатор                            : 7
Формат                                   : UTF-8
Идентификатор кодека                     : S_TEXT/UTF8
Идентификатор кодека/Информация          : UTF-8 Plain Text
Продолжительность                        : 2 ч. 2 м.
Битрейт                                  : 48 бит/сек
ElementCount                             : 1561
Размер потока                            : 43,0 Кбайт (0%)
Заголовок                                : Full - SDH
Язык                                     : English
Default                                  : Нет
Forced                                   : Нет


pb.wtf



Скачать Дьявол в деталях через торрент https://d.radikal.ru/d20/2102/c7/644fcf875c24.jpg Скачать, смотреть онлайн Дьявол в деталях бесплантно в хорошем качестве О фильме:Заместителя шерифа округа Керн Джо Дикона по прозвищу Дики отправляют в Лос-Анджелес – обычная командировка для сбора улик. Но там ... 10 10 10
Торрент: Зарегистрирован [2021-03-01 13:12] · скачан: 509 раз
Статус: √ проверено
Размер: 3 GB
Как cкачать? Как скачать Дьявол в деталях через торрент | UTorrent

% Раздел Тема Автор DL S | L
T Фильмы 2021 (Звук TS, Cam, VO, DVO) [ 1.45 GB ] Дьявол в деталях / The Little Things [2021 WEB-DLRip-AVC] [VO] [Владислав Данилов] от MediaBit Lithuania Скачать
3 | 0
Фильмы [HD 720p, 1080p] (Хороший звук DUB, MVO) [ 15.39 GB ] Дьявол в деталях / The Little Things [2021 BDRip 1080p] DUB [Мосфильм-Мастер] bober100 Скачать
1 | 0
Фильмы [HD 720p, 1080p] (Хороший звук DUB, MVO) [ 5.96 GB ] Дьявол в деталях / The Little Things [2021 BDRip 720p] DUB [Мосфильм-Мастер] bober100 Скачать
4 | 0
Фильмы 2021 [DVDrip, WEB-DLRip, HDrip] (DUB, MVO) [ 2.13 GB ] Дьявол в деталях / The Little Things [2021 HDRip] - [Мосфильм-Мастер] Twi7ter Скачать
43 | 3
Фильмы 2021 [DVDrip, WEB-DLRip, HDrip] (DUB, MVO) [ 1.47 GB ] Дьявол в деталях / The Little Things [2021 HDRip] - [Мосфильм-Мастер] Twi7ter Скачать
203 | 4
Фильмы (WEB-DL 720p, 1080p) [ 9.4 GB ] Дьявол в деталях / The Little Things [2021 WEB-DL 1080p] MVO [HDRezka Studio] +VO [В.Данилов] bober100 Скачать
3 | 0
Фильмы 2021 [DVDrip, WEB-DLRip, HDrip] (DUB, MVO) [ 2.18 GB ] Дьявол в деталях / The Little Things [2021 WEB-DLRip] MVO [HDRezka Studio] bober100 Скачать
6 | 0

28-11-2019 20:33  

Отключить всю рекламу на сайте

01-03-2021 13:56 Дьявол в деталях Скачать торрент  

Ребята не тратьте время на данный фильм. 3 раза пробовал посмотреть и вырубало и тут решил снова собраться. ТАкая муть. Так простоpb.wtf



08-03-2021 12:14 Дьявол в деталях Скачать торрент  

Ели-ели досмотрел до конца,редкостное говнище-однозначно.pb.wtf



21-03-2021 06:15 Дьявол в деталях Скачать торрент  

Спорный фильм, середнячок, посмотреть можно. Конец фильма оставляет загадку.pb.wtf



    Дорогой пользователь! Огромная просьба, поблагодарите релизера, оцените раздачу и оставьте свои комментарий, если Вы скачали Дьявол в деталях через торрент бесплатно!
    Комментировать посты могут только пользователи прошедшие не сложную регистрацию
    Показать сообщения:    

    Дьявол в деталях через торрент
    Скачать бесплатно Дьявол в деталях
    Дьявол в деталях скачать торрент
    Дьявол в деталях смотреть онлайн
    Cкачать фильм Дьявол в деталях бесплатно
    Дьявол в деталях скачать торрент в хорошем качестве
    Дьявол в деталях смотреть онлайн бесплатно в хорошем качестве


    Вы не можете начинать темы
    Вы не можете отвечать на сообщения
    Вы не можете редактировать свои сообщения
    Вы не можете удалять свои сообщения
    Вы не можете голосовать в опросах
    Вы не можете прикреплять файлы к сообщениям
    Вы можете скачивать файлы