1 сезон

1 сезон

iTunes

1

КиноПоиск HD

Кинопоиск HD

iTunes

13

1 сезон

RePack

30

Новинка

ВАЖНО

ИГРА 18+

pack

RePack

MK11
pack

Легкие деньги

RePack

jed

RePack

fifa19

RePack

RDR2

RePack

NEED FOR SPEED™ PAYBACK

4 сезон

9 сезон

Бесстыжие 9 сезон

Все сериалы

все сериалы на PB.wtf

RePack

FAR CRY 5
  
Magnet ссылка

Три богатыря и Морской царь (Константин Феоктистов) [2016 г., Мультфильм, комедия, приключения, WEB-DLRip 720p / 60 FPS, Не требуется Русский] от R.G. HD-Films pb.wtf

Три богатыря и Морской царь через торрент pb.wtf

Раздают: 6 [ 0 KB/s ]
Размер: 2.67 GB | Добавлен: 1 мес. 10 д. назад | Торрент скачан:60 раз
Скачать  

01-03-2021 13:25 Три богатыря и Морской царь Скачать торрент  

Три богатыря и Морской царь
Год выпуска: 2016
Страна: Россия
Жанр: Мультфильм, комедия, приключения
Продолжительность: 01:13:37
Перевод: Не требуется Русский

Режиссер: Константин Феоктистов

Премьера в мире: 1 января 2017

rating

Роли озвучивали: Сергей Маковецкий, Дмитрий Высоцкий, Олег Куликович, Валерий Соловьев, Дмитрий Быковский-Ромашов, Елена Шульман, Лия Медведева, Мария Цветкова-Овсянникова

Описание: У богатырей семейные неурядицы. Чтобы развеяться, они решают по-быстрому сгонять в Китай за зубом дракона, символом мудрости и силы. В это же время князь Киевский отправляется на прогулку вместе с конем Юлием за сокровищами морского царя, чтобы пополнить казну и «залатать бюджет». Да вот только морской царь решил жениться и для этого утопил Киев. И как теперь быть? Что поможет нашим героям? Дружба, смелость и, конечно, любовь.

Качество: WEB-DLRip 720p / 60 FPS
Формат: MKV
Видео кодек: H.264
Аудио кодек: AC3
Видео: x264, 1280 x 696 ( 1,85:1), 4806 kbps, 60,000 fps, ( 0.090 bpp)
Аудио#1: Русский, AC-3, 48.0 KHz, 6 ch, 384 Kbps
Релиз от: Автор рипа: slaventi-69
x264 [info]: frame I:1860 Avg QP:15.57 size:104287
x264 [info]: frame P:65344 Avg QP:17.43 size: 18808
x264 [info]: frame B:197838 Avg QP:20.26 size: 6222
x264 [info]: consecutive B-frames: 2.5% 3.4% 9.6% 36.9% 23.1% 24.4%


Общее
Уникальный идентификатор : 306925938653810758817715529419150867064 (0xE6E7C91CD6082D85C5E3013D4CB83A78)
Полное имя : E:\Tri.bogatyrya.i.Morskoy.tsar.(2016).WEB-DLRip.720p.(60 Fps).(iTunes).mkv
Формат : Matroska
Версия формата : Version 4
Размер файла : 2,67 Гбайт
Продолжительность : 1 ч. 13 м.
Общий поток : 5194 Кбит/сек
Название фильма : Три богатыря и Морской царь (2016) WEB-DLRip 720p (60 Fps) | iTunes
Дата кодирования : UTC 2021-03-01 12:52:39
Программа кодирования : mkvmerge v52.0.0 ('Secret For The Mad') 64-bit
Библиотека кодирования : libebml v1.4.1 + libmatroska v1.6.2

Видео
Идентификатор : 1
Формат : AVC
Формат/Информация : Advanced Video Codec
Профиль формата : High@L4.1
Настройки формата : CABAC / 8 Ref Frames
Параметр CABAC формата : Да
Параметр RefFrames формата : 8 кадров
Идентификатор кодека : V_MPEG4/ISO/AVC
Продолжительность : 1 ч. 13 м.
Битрейт : 4806 Кбит/сек
Ширина : 1280 пикселей
Высота : 696 пикселей
Соотношение сторон : 1,85:1
Режим частоты кадров : Постоянный
Частота кадров : 60,000 кадров/сек
Цветовое пространство : YUV
Субдискретизация насыщенности : 4:2:0
Битовая глубина : 8 бит
Тип развёртки : Прогрессивная
Бит/(Пиксели*Кадры) : 0.090
Размер потока : 2,47 Гбайт (93%)
Заголовок : slaventi-69 ( R.G. HD-Films | 60 fps )
Библиотека кодирования : x264 core 130 r2273 b3065e6
Настройки программы : cabac=1 / ref=8 / deblock=1:-1:-1 / analyse=0x3:0x133 / me=umh / subme=9 / psy=1 / psy_rd=1.00:0.00 / mixed_ref=1 / me_range=32 / chroma_me=1 / trellis=2 / 8x8dct=1 / cqm=0 / deadzone=21,11 / fast_pskip=0 / chroma_qp_offset=-2 / threads=10 / lookahead_threads=4 / sliced_threads=0 / nr=0 / decimate=1 / interlaced=0 / bluray_compat=0 / constrained_intra=0 / bframes=5 / b_pyramid=2 / b_adapt=2 / b_bias=0 / direct=2 / weightb=1 / open_gop=0 / weightp=2 / keyint=250 / keyint_min=25 / scenecut=40 / intra_refresh=0 / rc=crf / mbtree=0 / crf=17.5 / qcomp=0.60 / qpmin=0 / qpmax=69 / qpstep=4 / ip_ratio=1.40 / pb_ratio=1.30 / aq=1:1.00
Язык : Russian
Default : Да
Forced : Нет

Аудио
Идентификатор : 2
Формат : AC-3
Формат/Информация : Audio Coding 3
Коммерческое название : Dolby Digital
Идентификатор кодека : A_AC3
Продолжительность : 1 ч. 13 м.
Вид битрейта : Постоянный
Битрейт : 384 Кбит/сек
Каналы : 6 каналов
Channel layout : L R C LFE Ls Rs
Частота : 48,0 КГц
Частота кадров : 31,250 кадров/сек (1536 SPF)
Битовая глубина : 16 бит
Метод сжатия : С потерями
Размер потока : 202 Мбайт (7%)
Язык : Russian
ServiceKind/String : Complete Main
Default : Да
Forced : Нет

Просьба к переливающим на другие сайты, в оформлении указывайте пожалуйста авторство группы R.G. HD-Films pb.wtf



Скачать Три богатыря и Морской царь через торрент http://s48.radikal.ru/i122/1702/a0/5b346fb9c6fb.jpg Скачать фильм Три богатыря и Морской царь через торрент бесплантно в хорошем качестве Описание: У богатырей семейные неурядицы. Чтобы развеяться, они решают по-быстрому сгонять в за зубом дракона, символом мудрости и ... 10 10 5
Торрент: Зарегистрирован [2021-03-01 13:25] · скачан: 60 раз
Статус: √ проверено
Размер: 2.67 GB
Как cкачать? Как скачать Три богатыря и Морской царь через торрент | UTorrent

28-11-2019 20:33  

Отключить всю рекламу на сайте

02-04-2021 11:50 Три богатыря и Морской царь Скачать торрент  

Ещё бы Три богатыря и принцесса Египта запилить! На просторах инета только этой серии не хватает!
Не считая нового Конь Юлий и большие скачки!
Хотя он уже тоже не новый!pb.wtf



02-04-2021 16:33 Три богатыря и Морской царь Скачать торрент  

Всему свое время, я не забыл. ( Свет выключают когда хотят, не успеваю до кодировать и все с Начала, HDD уже щелкать начал.)pb.wtf



    Дорогой пользователь! Огромная просьба, поблагодарите релизера, оцените раздачу и оставьте свои комментарий, если Вы скачали Три богатыря и Морской царь через торрент бесплатно! Внесите свою лепту в развитие PiratBit!
    Комментировать посты могут только пользователи прошедшие не сложную регистрацию
    Показать сообщения:    

    Три богатыря и Морской царь через торрент
    Скачать бесплатно Три богатыря и Морской царь
    Три богатыря и Морской царь скачать торрент
    Три богатыря и Морской царь смотреть онлайн
    Cкачать фильм Три богатыря и Морской царь бесплатно
    Три богатыря и Морской царь скачать торрент в хорошем качестве
    Три богатыря и Морской царь смотреть онлайн бесплатно в хорошем качестве


    Вы не можете начинать темы
    Вы не можете отвечать на сообщения
    Вы не можете редактировать свои сообщения
    Вы не можете удалять свои сообщения
    Вы не можете голосовать в опросах
    Вы не можете прикреплять файлы к сообщениям
    Вы можете скачивать файлы