1 сезон

1 сезон

iTunes

1

КиноПоиск HD

Кинопоиск HD

iTunes

13

1 сезон

RePack

30

Ultimate

ВАЖНО

ИГРА 18+

pack

RePack

MK11
pack

Легкие деньги

RePack

jed

RePack

fifa19

RePack

RDR2

RePack

NEED FOR SPEED™ PAYBACK

4 сезон

9 сезон

Бесстыжие 9 сезон

Все сериалы

все сериалы на PB.wtf

RePack

FAR CRY 5
  
Magnet ссылка

Мавританец / The Mauritanian (Кевин Макдональд) [2021, Триллер, драма, WEB-DL 1080p] 2x[DUB] [iTunes] (Rus, Ukr) pb.wtf

Мавританец через торрент pb.wtf

Раздают: 37 [ 545 KB/s ] Качают: 1 [ 0 KB/s ]
Размер: 7.62 GB | Добавлен: 6 д. назад | Торрент скачан:201 раз
Скачать  

03-03-2021 20:19 Мавританец Скачать торрент  

Мавританец / The Mauritanian


Год выпуска: 2021
Страна: США
Жанр: Триллер, драма
Продолжительность: 02:09:28
Озвучивание #1: Дублированное | Русский язык | iTunes
Озвучивание #2: Дублированное | Украинский язык | iTunes
Субтитры: Russian (Forced, Full (FOCS)), English

Режиссер: Кевин Макдональд

В ролях: Джоди Фостер, Тахар Рахим, Закари Ливай, Саамер Усмани, Бенедикт Камбербэтч, Шейлин Вудли, Стевель Марк, Незар Альдерази, Клэйтон Бойд, Фрэнсис Чалер

Описание: Реальная история заключенного в Гуантанамо, которого подозревали в совершении ужасного теракта, наконец, рассказана во всеуслышание. Не получивший официальных обвинений и возможности защиты в суде, Мохаммед Ульд Слахи провел в заключении более 6 лет. Только после этого он был удостоен права на адвокатов. Но и им в борьбе с правительственной машиной предстоит побороть личные сомнения. Ведь как можно быть до конца уверенными в невиновности заключенного?

rating

Релиз группы: скриншот   & скриншот  

Тип релиза: WEB-DL 1080p
Контейнер: MKV
Видео: MPEG-4 AVC, 7016 Kb/s, 1920x1040
Аудио #1: Russian: 48 kHz, AC3 Dolby Digital, 3/2 (L, C, R, l, r) + LFE ch, ~384 Kbps | DUB | iTunes
Аудио #2: Ukrainian: 48 kHz, AC3 Dolby Digital, 3/2 (L, C, R, l, r) + LFE ch, ~384 Kbps | DUB | iTunes
Аудио #3: English: 48 kHz, Enhanced AC3 Dolby Digital, 3/2 (L, C, R, l, r) + LFE ch, ~640 Kbps | Original
Complete name: Mavritanets.2021.AMZN.WEB-DL.1080p.ELEKTRI4KA.UNIONGANG.mkv
Format: Matroska
Format version: Version 4
File size: 7.62 GiB
Duration: 2 h 9 min
Overall bit rate: 8 427 kb/s
Movie name: Mavritanets.2021.AMZN.WEB-DL.1080p.ELEKTRI4KA.UNIONGANG.
Encoded date: UTC 2021-04-05 18:39:00
Writing application: mkvmerge v8.3.0 ('Over the Horizon') 64bit
Writing library: libebml v1.3.1 + libmatroska v1.4.2

Video
ID: 1
Format: AVC
Format/Info: Advanced Video Codec
Format profile: High@L4
Format settings: CABAC / 4 Ref Frames
Format settings, CABAC: Yes
Format settings, Reference frames: 4 frames
Codec ID: V_MPEG4/ISO/AVC
Duration: 2 h 9 min
Bit rate mode: Constant
Bit rate: 7 016 kb/s
Nominal bit rate: 10 000 kb/s
Width: 1 920 pixels
Height: 1 040 pixels
Display aspect ratio: 1.85:1
Frame rate mode: Constant
Frame rate: 23.976 (24000/1001) FPS
Color space: YUV
Chroma subsampling: 4:2:0
Bit depth: 8 bits
Scan type: Progressive
Bits/(Pixel*Frame): 0.147
Stream size: 6.34 GiB (83%)
Language: English
Default: Yes
Forced: No
Color range: Limited
Color primaries: BT.709
Transfer characteristics: BT.709
Matrix coefficients: BT.709

Audio #1
ID: 2
Format: AC-3
Format/Info: Audio Coding 3
Commercial name: Dolby Digital
Codec ID: A_AC3
Duration: 2 h 9 min
Bit rate mode: Constant
Bit rate: 384 kb/s
Channel(s): 6 channels
Channel layout: L R C LFE Ls Rs
Sampling rate: 48.0 kHz
Frame rate: 31.250 FPS (1536 SPF)
Compression mode: Lossy
Stream size: 356 MiB (5%)
Title: DUB (iTunes)
Language: Russian
Service kind: Complete Main
Default: Yes
Forced: Yes

Audio #2
ID: 3
Format: AC-3
Format/Info: Audio Coding 3
Commercial name: Dolby Digital
Codec ID: A_AC3
Duration: 2 h 9 min
Bit rate mode: Constant
Bit rate: 384 kb/s
Channel(s): 6 channels
Channel layout: L R C LFE Ls Rs
Sampling rate: 48.0 kHz
Frame rate: 31.250 FPS (1536 SPF)
Compression mode: Lossy
Stream size: 356 MiB (5%)
Title: DUB (iTunes)
Language: Ukrainian
Service kind: Complete Main
Default: No
Forced: No

Audio #3
ID: 4
Format: E-AC-3
Format/Info: Enhanced AC-3
Commercial name: Dolby Digital Plus
Codec ID: A_EAC3
Duration: 2 h 9 min
Bit rate mode: Constant
Bit rate: 640 kb/s
Channel(s): 6 channels
Channel layout: L R C LFE Ls Rs
Sampling rate: 48.0 kHz
Frame rate: 31.250 FPS (1536 SPF)
Compression mode: Lossy
Stream size: 593 MiB (8%)
Language: English
Service kind: Complete Main
Default: No
Forced: No

Text #1
ID: 5
Format: UTF-8
Codec ID: S_TEXT/UTF8
Codec ID/Info: UTF-8 Plain Text
Duration: 2 h 5 min
Bit rate: 13 b/s
Count of elements: 267
Stream size: 12.5 KiB (0%)
Title: Forced
Language: Russian
Default: Yes
Forced: No

Text #2
ID: 6
Format: UTF-8
Codec ID: S_TEXT/UTF8
Codec ID/Info: UTF-8 Plain Text
Duration: 2 h 6 min
Bit rate: 106 b/s
Count of elements: 1700
Stream size: 98.7 KiB (0%)
Title: Full
Language: Russian
Default: No
Forced: No

Text #3
ID: 7
Format: UTF-8
Codec ID: S_TEXT/UTF8
Codec ID/Info: UTF-8 Plain Text
Duration: 1 h 40 min
Bit rate: 6 b/s
Count of elements: 175
Stream size: 4.56 KiB (0%)
Title: Forced
Language: English
Default: No
Forced: No

Text #4
ID: 8
Format: UTF-8
Codec ID: S_TEXT/UTF8
Codec ID/Info: UTF-8 Plain Text
Duration: 2 h 1 min
Bit rate: 57 b/s
Count of elements: 1447
Stream size: 50.9 KiB (0%)
Language: English
Default: No
Forced: No

Text #5
ID: 9
Format: UTF-8
Codec ID: S_TEXT/UTF8
Codec ID/Info: UTF-8 Plain Text
Duration: 2 h 6 min
Bit rate: 60 b/s
Count of elements: 1646
Stream size: 56.2 KiB (0%)
Title: SDH
Language: English
Default: No
Forced: No
скриншот   скриншот   скриншот  
pb.wtf



Скачать Мавританец через торрент https://i114.fastpic.ru/big/2021/0303/3d/8d300c30cfc4cd537e46ea8495ee473d.jpg Скачать фильм Мавританец через торрент бесплантно в хорошем качестве Описание: Реальная история заключенного в Гуантанамо, которого подозревали в совершении ужасного теракта, наконец, рассказана во ... 9.8 10 18
Info! Золотая раздача, скачанное не засчитывается.
Торрент: Зарегистрирован [2021-04-05 19:46] · скачан: 201 раз
Статус: √ проверено
Размер: 7.62 GB
Как cкачать? Как скачать Мавританец через торрент | UTorrent

% Раздел Тема Автор DL S | L
Фильмы 2021 [DVDrip, WEB-DLRip, HDrip] (DUB, MVO) [ 2.05 GB ] Мавританец / The Mauritanian [2021 WEB-DLRip-AVC] [MVO] [HDRezka Studio] от MediaBit Lithuania Скачать
22 | 1
Фильмы (WEB-DL 720p, 1080p) [ 7.33 GB ] Мавританец / The Mauritanian [2021 WEB-DL 1080p] MVO [HDRezka Studio] bober100 Скачать
14 | 0
Фильмы 2021 [DVDrip, WEB-DLRip, HDrip] (DUB, MVO) [ 2.19 GB ] Мавританец / The Mauritanian [2021 WEB-DLRip] DUB [Line] +AVO [A. Карповский] bober100 Скачать
5 | 0
Фильмы 2021 [DVDrip, WEB-DLRip, HDrip] (DUB, MVO) [ 1.47 GB ] Мавританец / The Mauritanian [2021 WEB-DLRip] DUB [Line] +AVO [A. Карповский] bober100 Скачать
8 | 0


Последний раз редактировалось: killermax2013 (2021-04-05 19:46), всего редактировалось 1 раз

28-11-2019 20:33  

Отключить всю рекламу на сайте

06-04-2021 07:00 Мавританец Скачать торрент  

Сильный фильм!pb.wtf



    Дорогой пользователь! Огромная просьба, поблагодарите релизера, оцените раздачу и оставьте свои комментарий, если Вы скачали Мавританец через торрент бесплатно! Внесите свою лепту в развитие PiratBit!
    Комментировать посты могут только пользователи прошедшие не сложную регистрацию
    Показать сообщения:    

    Мавританец через торрент
    Скачать бесплатно Мавританец
    Мавританец скачать торрент
    Мавританец смотреть онлайн
    Cкачать фильм Мавританец бесплатно
    Мавританец скачать торрент в хорошем качестве
    Мавританец смотреть онлайн бесплатно в хорошем качестве


    Вы не можете начинать темы
    Вы не можете отвечать на сообщения
    Вы не можете редактировать свои сообщения
    Вы не можете удалять свои сообщения
    Вы не можете голосовать в опросах
    Вы не можете прикреплять файлы к сообщениям
    Вы можете скачивать файлы