Достать ножи: Стеклянная луковица

MVO

Добыча

Дубляж

Уэнсдэй

1 сезон

Тор

Дубляж

13 клиническая

1 сезон

Жестокая ночь

MVO

Одни из нас

1 сезон

Deluxe

pack

Рекомендуем

30

Пиратка

ВАЖНО

ВАЖНО

Ghostwire

Пиратка

jed

RePack

nioh2

RePack

RDR2

RePack

NEED FOR SPEED™ PAYBACK

RePack

скачать торрент

Кинопоиск HD

Острые козырьки 6 сезон

6 сезон

FAR CRY 6

RePack

скачать торрент

Лицензия

скачать торрент

MVO

1

1 сезон

скачать торрент

1 сезон

скачать торрент

Лицензия

  

Засланец из космоса / Местный пришелец / Resident Alien / Сезон: 1 / Серии: 1-10 из 10 (Шеннон Коли, Дженнифер Фанг, Дэвид Добкин) [2021, фантастика, драма, комедия, детектив, WEB-DL 1080p] MVO [AlexFilm]

Засланец из космоса через торрент pb.wtf

Размер: 32.04 GB | Добавлен: 1 год 9 мес. назад | Торрент скачан:76 раз
Смотреть онлайн | Скачать | Поддержите нас   

05-03-2021 14:54 Засланец из космоса Скачать торрент  

Засланец из космоса | Местный пришелец | Resident Alien
«The sci-fi murder mystery doctor dramedy Earth needs now»
Год выпуска: 2021
Страна: США
Выпущено: Universal Cable Productions, Dark Horse Entertainment, Amblin Television
Жанр: фантастика, драма, комедия, детектив
Премьера (мир): 27 января 2021
Продолжительность: ~ 00:46:00 серия
Перевод: Профессиональный (многоголосый закадровый | AlexFilm
Субтитры: Английские (Full, SDH)

Режиссер: Шеннон Коли, Дженнифер Фанг, Дэвид Добкин

rating

В ролях: Алан Тьюдик (Alan Tudyk), Сара Томко (Sara Tomko), Кори Рейнольдс (Corey Reynolds), Элис Веттерлунд (Alice Wetterlund), Леви Филер (Levi Fiehler), Элизабет Бауэн (Elizabeth Bowen), Мередит Аутри (Meredith Autry), Кэйлайла Рэйн (Kaylayla Raine), Манделл Мофан (Mandell Maughan), Гэри Фармер (Gary Farmer)

Описание: Доктор Гарри Вендершпигль — отшельник в небольшом городке в Колорадо. Ещё Вендершпигль — пришелец, который на самом деле упал на Землю и занял тело врача. Когда же доктора убивают, пришелец вынужден отложить миссию по возвращению домой и занять место убитого. Живя в новом теле, он постепенно начинает задаваться вопросами, стоят люди спасения или нет.

Качество: WEB-DL 1080p
Формат: MKV

Видео: 1920x1080 (16:9), 23.976 fps, ~7000 Kbps
Аудио Rus: AC3, 48,0 kHz, 6 ch, 384 kbps |AlexFilm|
Аудио Eng: AC3, 48,0 kHz, 6 ch, 640 kbps |Original|
скриншот  скриншот  скриншот  скриншот  

Complete name : D:Resident Alien_(s01)_AlexFilm_1080pResident.Alien.2021.S01E01.Pilot.1080p.AMZN.WEB-DL.DD5.1.x264-NTb_EniaHD.mkv
Format : Matroska
Format version : Version 4
File size : 2.59 GiB
Duration : 46 min 23 s
Overall bit rate : 8 006 kb/s
Encoded date : UTC 2021-02-23 11:40:39
Writing application : mkvmerge v53.0.0 ('Fool's Gold') 64-bit
Writing library : libebml v1.4.1 + libmatroska v1.6.2

Video
ID : 1
Format : AVC
Format/Info : Advanced Video Codec
Format profile : [email protected]
Format settings : CABAC / 4 Ref Frames
Format settings, CABAC : Yes
Format settings, Reference : 4 frames
Codec ID : V_MPEG4/ISO/AVC
Duration : 46 min 22 s
Bit rate mode : Constant
Bit rate : 6 982 kb/s
Nominal bit rate : 10 000 kb/s
Width : 1 920 pixels
Height : 1 080 pixels
Display aspect ratio : 16:9
Frame rate mode : Constant
Frame rate : 23.976 (24000/1001) FPS
Color space : YUV
Chroma subsampling : 4:2:0
Bit depth : 8 bits
Scan type : Progressive
Bits/(Pixel*Frame) : 0.140
Stream size : 2.26 GiB (87%)
Title : Release by EniaHD
Default : Yes
Forced : No
Color range : Limited
Color primaries : BT.709
Transfer characteristics : BT.709
Matrix coefficients : BT.709

Audio #1
ID : 2
Format : AC-3
Format/Info : Audio Coding 3
Commercial name : Dolby Digital
Codec ID : A_AC3
Duration : 46 min 23 s
Bit rate mode : Constant
Bit rate : 384 kb/s
Channel(s) : 6 channels
Channel layout : L R C LFE Ls Rs
Sampling rate : 48.0 kHz
Frame rate : 31.250 FPS (1536 SPF)
Compression mode : Lossy
Stream size : 127 MiB (5%)
Title : AlexFilm
Language : Russian
Service kind : Complete Main
Default : Yes
Forced : No

Audio #2
ID : 3
Format : AC-3
Format/Info : Audio Coding 3
Commercial name : Dolby Digital
Codec ID : A_AC3
Duration : 46 min 23 s
Bit rate mode : Constant
Bit rate : 640 kb/s
Channel(s) : 6 channels
Channel layout : L R C LFE Ls Rs
Sampling rate : 48.0 kHz
Frame rate : 31.250 FPS (1536 SPF)
Compression mode : Lossy
Stream size : 212 MiB (8%)
Language : English
Service kind : Complete Main
Default : No
Forced : No

Text #1
ID : 4
Format : UTF-8
Codec ID : S_TEXT/UTF8
Codec ID/Info : UTF-8 Plain Text
Duration : 46 min 0 s
Bit rate : 53 b/s
Count of elements : 590
Stream size : 17.9 KiB (0%)
Title : Full
Language : English
Default : No
Forced : No

Text #2
ID : 5
Format : UTF-8
Codec ID : S_TEXT/UTF8
Codec ID/Info : UTF-8 Plain Text
Duration : 46 min 3 s
Bit rate : 59 b/s
Count of elements : 684
Stream size : 20.1 KiB (0%)
Title : SDH
Language : English
Default : No
Forced : No

Внимание! Раздача ведётся путём добавления новых серий; при каждом добавлении создаётся новый торрент.
Чтобы начать докачку новой серии, пользователям необходимо сделать следующее:
1. Остановить скачивание;
2. Удалить старый торрент у себя из клиента (старые серии удалять не надо);
3. Скачать новый торрент и запустить его у себя в клиенте вместо старого, при этом указать клиенту путь в старую папку куда и должно происходить скачивание новых серий. Ваш клиент при этом должен произвести хеширование (проверку) старой папки и будет докачивать только те серии, которых у вас ещё нет. Старые серии при этом не удаляются, а продолжают раздаваться! Eсли вы уже удалили старые серии, то предотвратить повторную закачку старых серий можно, отжав галочку в соответствующих местах при запуске нового торрента.




Скачать Засланец из космоса через торрент https://i4-imageban-ru.translate.goog/out/2021/01/29/2f377c7bb91c219359c188c011fd9e45.png Скачать, смотреть онлайн Засланец из космоса бесплантно в хорошем качестве Описание: Доктор Гарри Вендершпигль — отшельник в небольшом городке в Колорадо. Ещё Вендершпигль — пришелец, который на самом деле упал на ... 10 10 8
Торрент: Зарегистрирован [2021-04-02 23:53] · скачан: 76 раз
Статус: √ проверено
Размер: 32.04 GB
Как cкачать? Как скачать Засланец из космоса через торрент | UTorrent

% Раздел Тема Автор DL S | L
Зарубежные сериалы [ 18.05 GB ] Засланец из космоса / Resident Alien / Сезон: 2 / Серии 1-16 из 16 | LostFilm | DLRip-AVC GEKADOL Скачать
2 | 1
Зарубежные сериалы [ 5.42 GB ] Засланец из космоса / Местный пришелец / Resident Alien / Сезон: 1 / Серии: 1-10 из 10 | MVO | WEBRip bober100 Скачать
1 | 0
Зарубежные сериалы [ 31.83 GB ] Засланец из космоса / Местный пришелец / Resident Alien / Сезон: 1 / Серии: 1-10 из 10 | MVO | 1080p bober100 Скачать
1 | 0
Зарубежные сериалы [ 7.29 GB ] Засланец из космоса / Resident Alien / Сезон: 1 / Серии 1-10 из 10 | LostFilm | DLRip-AVC GEKADOL Скачать
3 | 0
Зарубежные сериалы [ 5.42 GB ] Засланец из космоса / Resident Alien / Сезон: 1 / Серии: 1-10 из 10 | MVO | WEBRip killermax2013 Скачать
2 | 0
Зарубежные сериалы [ 6.64 GB ] Засланец из космоса / Местный пришелец / Resident Alien / Сезон: 1 / Серии: 1-10 из 10 | MVO | DLRip bober100 Скачать
2 | 0
Зарубежные сериалы [ 34.35 GB ] Засланец из космоса / Местный пришелец / Resident Alien / Сезон: 1 / Серии: 1-10 из 10 | LostFilm | 1080p bober100 Скачать
1 | 0

28-11-2019 20:33  


Отключить вcю реклaмy на сайте, в т.ч. и в плеере онлайн просмотра!

27-03-2021 04:58 Засланец из космоса Скачать торрент  

мощьный сериальчик



03-04-2021 03:09 Засланец из космоса Скачать торрент  

замечательное кино.посмотрели на ура.



    Дорогой пользователь! Огромная просьба, поблагодарите релизера, оцените раздачу и оставьте свои комментарий, если Вы скачали Засланец из космоса через торрент бесплатно!!
    Комментировать посты могут только пользователи прошедшие не сложную регистрацию
    Показать сообщения:    


    Засланец из космоса через торрент
    Скачать бесплатно Засланец из космоса
    Засланец из космоса скачать торрент
    Засланец из космоса смотреть онлайн
    Cкачать фильм Засланец из космоса бесплатно
    Засланец из космоса скачать торрент в хорошем качестве
    Засланец из космоса смотреть онлайн бесплатно в хорошем качестве
    Вы не можете начинать темы
    Вы не можете отвечать на сообщения
    Вы не можете редактировать свои сообщения
    Вы не можете удалять свои сообщения
    Вы не можете голосовать в опросах
    Вы не можете прикреплять файлы к сообщениям
    Вы можете скачивать файлы
    Засланец из космоса / Местный пришелец / Resident Alien / Сезон: 1 / Серии: 1-10 из 10 [2021, фантастика, драма, комедия, детектив, WEB-DL 1080p] MVO [AlexFilm] смотреть онлайн, скачать торрент picoco.icu