Присоединяйтесь к нам в Telegram!, здесь всегда актуальный адрес сайта, оперативная поддержка и многое другое!!

>

5.9

iTunes

7.4

iTunes

9.4

1 сезон

1

7.4

2 сезон

7.2

iTunes

7.3

1 сезон

13

6.1

iTunes

8.3

GOG

30

ULTIMATE

pack

9.9

Лицензия

ВАЖНО

ИГРА 18+

pack

7.3

RePack

MK11

7.7

RePack

jed

7.8

RePack

fifa19

8.5

RePack

RDR2

RePack

NEED FOR SPEED™ PAYBACK

5 сезон

9 сезон

Бесстыжие 9 сезон

Все сериалы

все сериалы на PB.wtf

RePack

FAR CRY 5

Anonymous, добрый вечер, мы катастрофически не успеваем собрать деньги на оплату серверов, помогите нам пожалуйста 5,10,15р., для нас важна любая помощь . В качестве благодарности мы отключим Вам всю рекламу на сайте (укажите свой ник в строку Ваше имя)!

×
  
Magnet ссылка

Странные игры / Ransum Games (Паррис Ривз) [2021, Криминал, WEB-DLRip-AVC] [DVO] [Mallorn] от MediaBit pb.wtf

Странные игры через торрент pb.wtf

Размер: 1.45 GB | Добавлен: 8 мес. назад | Торрент скачан:48 раз
Смотреть онлайн Странные игры | Скачать    Ребята, помогите собрать деньги на оплату серверов!!!

07-03-2021 10:16 Странные игры Скачать торрент  


Странные игры / Ransum Games
Информация о фильме:
Название: Странные игры
Оригинальное название: Ransum Games
Год выхода: 2021
Жанр: Криминал
Режиссер: Паррис Ривз
В ролях: Элиз Нил, Вуд Харрис, Эрик Лэйн, Девин Уэсли, Томми Филлипс, Джонни Кулаут Старкс, Хадиджа Фриман

Описание: Любящая жена Дениз должна принять судьбоносное решение, будет ли она платить выкуп за своего состоятельного мужа, которого похищает банда уличных преступников.



Страна: США
Студия: C.L.A.S. Productions
Продолжительность: 01:29:27
Перевод: Любительский (двухголосый, закадровый) - Mallorn Studio по заказу Zetflix



Информация о файле:
Кодек: AVC
Формат: MKV
Качество: WEB-DLRip-AVC
Видео: MPEG-4 AVC, 1024x576, 29,970 fps, 2128 kbps
Аудио RU: AAC-HE, 2 ch, 48 kHz, 96 kbps
Аудио EN: AAC-HE, 2 ch, 48 kHz, 96 kbps
Субтитры: Русские, английские
Навигация по главам: Нет

x264 info: frame I:792 Avg QP:15.90 size: 52101
x264 info: frame P:35644 Avg QP:19.06 size: 19797
x264 info: frame B:124540 Avg QP:21.67 size: 5471
x264 info: consecutive B-frames: 1.7% 2.0% 5.5% 23.9% 38.1% 21.3% 3.5% 1.0% 0.8% 0.9% 1.2%
******************************************************************
General
Unique ID : 183865122115042135767751669712805123908 (0x8A53226AB951CA0BDAC06C6F19275744)
Complete name : D:uTorrentРипы_от_wolf1245_MediaBitRansum Games.2021.DVO.Mallorn.WEB-DLRip-AVC_wolf1245_MediaBit.mkv
Format : Matroska
Format version : Version 4
File size : 1.45 GiB
Duration : 1 h 29 min
Overall bit rate : 2 322 kb/s
Movie name : Ransum Games.2021.DVO.Mallorn.WEB-DLRip-AVC_wolf1245_MediaBit
Encoded date : UTC 2021-03-07 10:03:32
Writing application : mkvmerge v55.0.0 ('Waiting For Space') 64-bit
Writing library : libebml v1.4.2 + libmatroska v1.6.4
Video
ID : 1
Format : AVC
Format/Info : Advanced Video Codec
Format profile : High@L4.1
Format settings : CABAC / 12 Ref Frames
Format settings, CABAC : Yes
Format settings, Reference frames : 12 frames
Codec ID : V_MPEG4/ISO/AVC
Duration : 1 h 29 min
Bit rate : 2 128 kb/s
Width : 1 024 pixels
Height : 576 pixels
Display aspect ratio : 16:9
Frame rate mode : Constant
Frame rate : 29.970 (30000/1001) FPS
Color space : YUV
Chroma subsampling : 4:2:0
Bit depth : 8 bits
Scan type : Progressive
Bits/(Pixel*Frame) : 0.120
Stream size : 1.33 GiB (92%)
Title : _wolf1245_MediaBit
Writing library : x264 core 157 r2958 57baac4
Encoding settings : cabac=1 / ref=12 / deblock=1:-2:-1 / analyse=0x3:0x133 / me=umh / subme=10 / psy=1 / psy_rd=1.00:0.00 / mixed_ref=1 / me_range=32 / chroma_me=1 / trellis=2 / 8x8dct=1 / cqm=0 / deadzone=21,11 / fast_pskip=1 / chroma_qp_offset=-2 / threads=10 / lookahead_threads=2 / sliced_threads=0 / nr=0 / decimate=1 / interlaced=0 / bluray_compat=0 / constrained_intra=0 / bframes=10 / b_pyramid=2 / b_adapt=2 / b_bias=0 / direct=3 / weightb=1 / open_gop=0 / weightp=2 / keyint=300 / keyint_min=30 / scenecut=40 / intra_refresh=0 / rc_lookahead=60 / rc=2pass / mbtree=1 / bitrate=2128 / ratetol=1.0 / qcomp=0.60 / qpmin=0 / qpmax=69 / qpstep=4 / cplxblur=20.0 / qblur=0.5 / vbv_maxrate=50000 / vbv_bufsize=62500 / nal_hrd=none / filler=0 / ip_ratio=1.40 / aq=1:0.80
Language : English
Default : Yes
Forced : No
Color range : Limited
Color primaries : BT.709
Transfer characteristics : BT.709
Matrix coefficients : BT.709
Audio #1
ID : 2
Format : AAC LC SBR
Format/Info : Advanced Audio Codec Low Complexity with Spectral Band Replication
Commercial name : HE-AAC
Format settings : Implicit
Codec ID : A_AAC-2
Duration : 1 h 29 min
Bit rate : 96.0 kb/s
Channel(s) : 2 channels
Channel layout : L R
Sampling rate : 48.0 kHz
Frame rate : 23.438 FPS (2048 SPF)
Compression mode : Lossy
Stream size : 61.5 MiB (4%)
Title : DVO | Mallorn
Language : Russian
Default : Yes
Forced : No
Audio #2
ID : 3
Format : AAC LC SBR
Format/Info : Advanced Audio Codec Low Complexity with Spectral Band Replication
Commercial name : HE-AAC
Format settings : Implicit
Codec ID : A_AAC-2
Duration : 1 h 29 min
Bit rate : 96.0 kb/s
Channel(s) : 2 channels
Channel layout : L R
Sampling rate : 48.0 kHz
Frame rate : 23.438 FPS (2048 SPF)
Compression mode : Lossy
Stream size : 61.5 MiB (4%)
Title : Original | English
Language : English
Default : No
Forced : No
Text #1
ID : 4
Format : UTF-8
Codec ID : S_TEXT/UTF8
Codec ID/Info : UTF-8 Plain Text
Duration : 1 h 26 min
Bit rate : 94 b/s
Count of elements : 1656
Stream size : 59.9 KiB (0%)
Title : Mallorn
Language : Russian
Default : No
Forced : No
Text #2
ID : 5
Format : UTF-8
Codec ID : S_TEXT/UTF8
Codec ID/Info : UTF-8 Plain Text
Duration : 1 h 29 min
Bit rate : 81 b/s
Count of elements : 1977
Stream size : 53.4 KiB (0%)
Title : English (SDH)
Language : English
Default : No
Forced : No
Релиз от: &
Автор релиза:
pb.wtf



Скачать Странные игры через торрент https://i114.fastpic.ru/big/2021/0307/87/9ce23a86648626b19b63f93a7e6c5f87.jpg Скачать, смотреть онлайн Странные игры бесплантно в хорошем качестве Описание: Любящая жена Дениз должна принять судьбоносное решение, будет ли она платить выкуп за своего состоятельного мужа, которого ... 10 10 3
Торрент: Зарегистрирован [2021-03-07 10:16] · скачан: 48 раз
Статус: √ проверено
Размер: 1.45 GB
Как cкачать? Как скачать Странные игры через торрент | UTorrent

28-11-2019 20:33  

Отключить всю рекламу на сайте

07-03-2021 11:03 Странные игры Скачать торрент  

это опять что-ли толерантное кино.ну заплатите уже им за рабство с прошлых веков.достало это все уже в натуре..в случае цунами,наводнения или другой народной беды-они так же будут грабить дома,магазины,квартиры,супермаркеты.народ просто такой.дай им хоть миллиард.pb.wtf



07-03-2021 13:45 Странные игры Скачать торрент  

прям какое то чёрное кино, с чёрными актерамиpb.wtf



    Дорогой пользователь! Огромная просьба, поблагодарите релизера, оцените раздачу и оставьте свои комментарий, если Вы скачали Странные игры через торрент бесплатно!
    Комментировать посты могут только пользователи прошедшие не сложную регистрацию
    Показать сообщения:    

    Странные игры через торрент
    Скачать бесплатно Странные игры
    Странные игры скачать торрент
    Странные игры смотреть онлайн
    Cкачать фильм Странные игры бесплатно
    Странные игры скачать торрент в хорошем качестве
    Странные игры смотреть онлайн бесплатно в хорошем качестве


    Вы не можете начинать темы
    Вы не можете отвечать на сообщения
    Вы не можете редактировать свои сообщения
    Вы не можете удалять свои сообщения
    Вы не можете голосовать в опросах
    Вы не можете прикреплять файлы к сообщениям
    Вы можете скачивать файлы