Всегда рабочее зеркало без VPN и Proxy просто перед .vidak.icu напиши любое слово или цифру, Пример http://b8dl.vidak.icu

MVO

Лицензия

1 сезон

1

1 сезон

iTunes

1 сезон

13

1 сезон

Deluxe

pack

Рекомендуем

Пиратка

30

ВАЖНО

RePack

MK11

RePack

jed

RePack

fifa19

RePack

RDR2

RePack

NEED FOR SPEED™ PAYBACK

Кинопоиск HD

6 сезон

 Острые козырьки 6 сезон

Все сериалы

все сериалы на PB.wtf

RePack

FAR CRY 5
  
Magnet ссылка

Москва слезам не верит (Владимир Меньшов) [1979 г., драма, мелодрама, комедия, BDRip 720p / 60 FPS, Не требуется Русский] от R.G. HD-Films pb.wtf

Москва слезам не верит через торрент pb.wtf

Размер: 4.97 GB | Добавлен: 1 год 3 мес. назад | Торрент скачан:63 раза
Смотреть онлайн Москва слезам не верит | Скачать    Ребята, помогите собрать деньги на оплату серверов!!!

08-03-2021 08:15 Москва слезам не верит Скачать торрент  

Москва слезам не верит
Год выпуска: 1979
Страна: СССР
Жанр: драма, мелодрама, комедия
Продолжительность: 02:27:59
Перевод: Не требуется Русский

Режиссер: Владимир Меньшов

Бюджет: $900 000
Премьера в мире: 11 февраля 1980

rating

В ролях: Вера Алентова, Ирина Муравьёва, Алексей Баталов, Раиса Рязанова, Александр Фатюшин, Борис Сморчков, Виктор Уральский, Валентина Ушакова, Юрий Васильев, Евгения Ханаева

Описание: Москва пятидесятых годов. Три молодые провинциалки приезжают в Москву в поисках того, что ищут люди во всех столицах мира - любви, счастья и достатка. Их судьбы складываются именно так, как предполагает характер каждой из девушек. Антонина выходит замуж, растит детей, любит мужа. Людмиле Москва представляется лотереей, в которой она должна выиграть свое особенное счастье. Катерина же - отчаянно влюбляется, но избранник ее оставляет. Однако она не опускает руки, в одиночку растит дочь и к тому же успевает сделать блестящую карьеру. В сорок лет судьба дарит ей встречу с прекрасным человеком и настоящую любовь...

Качество: BDRip 720p / 60 FPS
Формат: MKV
Видео кодек: H.264
Аудио кодек: AC3
Видео: x264, 944 x 712 ( 4:3 ), 4421 kbps, 60,000 fps, ( 0.110 bpp)
Аудио#1: Russian: 48 kHz, AC3, 5.1 ch, 16 bits, 384 kbps
Релиз от: Автор рипа: slaventi-69
Общее
Уникальный идентификатор : 340001939813779030545799084185058551921 (0xFFC9FDE04B5B6301D3A45B8509B02871)
Полное имя : E:\Moskva.slezam.ne.verit.(1979).BDRip.720p.(60 Fps).mkv
Формат : Matroska
Версия формата : Version 4
Размер файла : 4,97 Гбайт
Продолжительность : 2 ч. 27 м.
Общий поток : 4808 Кбит/сек
Название фильма : Москва слезам не верит (1979) BDRip 720p (60 Fps)
Дата кодирования : UTC 2021-03-07 16:22:04
Программа кодирования : mkvmerge v52.0.0 ('Secret For The Mad') 64-bit
Библиотека кодирования : libebml v1.4.1 + libmatroska v1.6.2

Видео
Идентификатор : 1
Формат : AVC
Формат/Информация : Advanced Video Codec
Профиль формата : High@L4.1
Настройки формата : CABAC / 9 Ref Frames
Параметр CABAC формата : Да
Параметр RefFrames формата : 9 кадров
Идентификатор кодека : V_MPEG4/ISO/AVC
Продолжительность : 2 ч. 27 м.
Битрейт : 4421 Кбит/сек
Ширина : 944 пикселя
Высота : 712 пикселей
Соотношение сторон : 4:3
Режим частоты кадров : Постоянный
Частота кадров : 60,000 кадров/сек
Цветовое пространство : YUV
Субдискретизация насыщенности : 4:2:0
Битовая глубина : 8 бит
Тип развёртки : Прогрессивная
Бит/(Пиксели*Кадры) : 0.110
Размер потока : 4,57 Гбайт (92%)
Заголовок : slaventi-69 ( R.G. HD-Films | 60 fps )
Библиотека кодирования : x264 core 130 r2273 b3065e6
Настройки программы : cabac=1 / ref=9 / deblock=1:-1:-1 / analyse=0x3:0x133 / me=umh / subme=9 / psy=1 / psy_rd=1.00:0.00 / mixed_ref=1 / me_range=32 / chroma_me=1 / trellis=2 / 8x8dct=1 / cqm=0 / deadzone=21,11 / fast_pskip=0 / chroma_qp_offset=-2 / threads=10 / lookahead_threads=4 / sliced_threads=0 / nr=0 / decimate=1 / interlaced=0 / bluray_compat=0 / constrained_intra=0 / bframes=5 / b_pyramid=2 / b_adapt=2 / b_bias=0 / direct=2 / weightb=1 / open_gop=0 / weightp=2 / keyint=250 / keyint_min=25 / scenecut=40 / intra_refresh=0 / rc=crf / mbtree=0 / crf=17.0 / qcomp=0.60 / qpmin=0 / qpmax=69 / qpstep=4 / ip_ratio=1.40 / pb_ratio=1.30 / aq=1:1.00
Язык : Russian
Default : Да
Forced : Нет

Аудио
Идентификатор : 2
Формат : AC-3
Формат/Информация : Audio Coding 3
Коммерческое название : Dolby Digital
Идентификатор кодека : A_AC3
Продолжительность : 2 ч. 27 м.
Вид битрейта : Постоянный
Битрейт : 384 Кбит/сек
Каналы : 6 каналов
Channel layout : L R C LFE Ls Rs
Частота : 48,0 КГц
Частота кадров : 31,250 кадров/сек (1536 SPF)
Битовая глубина : 16 бит
Метод сжатия : С потерями
Размер потока : 406 Мбайт (8%)
Язык : Russian
ServiceKind/String : Complete Main
Default : Да
Forced : Нет

Просьба к переливающим на другие сайты, в оформлении указывайте пожалуйста авторство группы R.G. HD-Films pb.wtf



Скачать Москва слезам не верит через торрент http://i26.fastpic.ru/big/2012/1203/66/4dd28405546427b1f0fa39ec2ee04066.jpg Скачать, смотреть онлайн Москва слезам не верит бесплантно в хорошем качестве Описание: Москва пятидесятых годов. Три молодые провинциалки приезжают в Москву в поисках того, что ищут люди во всех столицах мира - ... 10 10 11
Info! Золотая раздача, скачанное не засчитывается.
Торрент: Зарегистрирован [2021-03-08 08:15] · скачан: 63 раз
Статус: √ проверено
Размер: 4.97 GB
Как cкачать? Как скачать Москва слезам не верит через торрент | UTorrent

28-11-2019 20:33  

Отключить всю рекламу на сайте

09-03-2021 12:51 Москва слезам не верит Скачать торрент  

Спасибо!!! отличный фильмpb.wtf



    Дорогой пользователь! Огромная просьба, поблагодарите релизера, оцените раздачу и оставьте свои комментарий, если Вы скачали Москва слезам не верит через торрент бесплатно!
    Комментировать посты могут только пользователи прошедшие не сложную регистрацию
    Показать сообщения:    

    Москва слезам не верит через торрент
    Скачать бесплатно Москва слезам не верит
    Москва слезам не верит скачать торрент
    Москва слезам не верит смотреть онлайн
    Cкачать фильм Москва слезам не верит бесплатно
    Москва слезам не верит скачать торрент в хорошем качестве
    Москва слезам не верит смотреть онлайн бесплатно в хорошем качестве


    Вы не можете начинать темы
    Вы не можете отвечать на сообщения
    Вы не можете редактировать свои сообщения
    Вы не можете удалять свои сообщения
    Вы не можете голосовать в опросах
    Вы не можете прикреплять файлы к сообщениям
    Вы можете скачивать файлы