Anonymous, добрый день, присоединяйтесь к нам в Telegram!, здесь всегда актуальный адрес сайта, оперативная поддержка и многое другое!

>

5.5

iTunes

7.4

iTunes

7.9

iTunes

1

7.7

1 сезон

6.8

iTunes

7.3

1 сезон

13

6.7

1 сезон

8.3

RePack

30

ULTIMATE

pack

9.9

Лицензия

ВАЖНО

ИГРА 18+

pack

7.3

RePack

MK11

7.7

RePack

jed

7.8

RePack

fifa19

8.5

RePack

RDR2

RePack

NEED FOR SPEED™ PAYBACK

4 сезон

9 сезон

Бесстыжие 9 сезон

Все сериалы

все сериалы на PB.wtf

RePack

FAR CRY 5

Anonymous, добрый день, мы катастрофически не успеваем собрать деньги на оплату серверов, помогите нам пожалуйста 5,10,15р., для нас важна любая помощь . В качестве благодарности мы отключим Вам всю рекламу на сайте (укажите свой ник в строку Ваше имя)!

×
  
Magnet ссылка

Девушки с Макаровым / Сезон: 1 / Серии: 1-20 из 20 (Константин Смирнов) [2021, Комедия, WEBRip 720p] pb.wtf

Девушки с Макаровым через торрент pb.wtf

Раздают: 4 [ 19 KB/s ]
Размер: 11.69 GB | Добавлен: 6 мес. назад | Торрент скачан:106 раз
Смотреть онлайн Девушки с Макаровым | Скачать    Ребята, помогите собрать деньги на оплату серверов!!!

09-03-2021 18:04 Девушки с Макаровым Скачать торрент  

Девушки с Макаровым
Год выпуска: 2021
Страна: Россия
Студия: Comedy Club Production
Жанр: Комедия
Продолжительность: ~ 00:25:00
Перевод: Не требуется
Субтитры: отсутствуют

Режиссер: Константин Смирнов (VI)



В ролях: Павел Майков, Алевтина Тукан, Валерия Астапова, Владислава Ермолаева, Елена Полянская, Олеся Судзиловская, Георгий Дронов, Сергей Астахов, Дмитрий Лысенков, Андрей Пынзару, Анна Невская, Олег Евтеев, Никита Абдулов, Руслан Ягудин

Описание: Желая подкинуть проблем Макарову, лучшему полицейскому московского района Бутово, новое начальство выделяет ему «подкрепление» – четырех бывших студенток: отличницу Анну Туркину, самбистку Сашу Попову, мать-одиночку Олесю Вербу и просто красавицу Катю Синицкую. По задумке начальства девушки должны ужаснуться характеру Макарова и настучать на грубияна, постоянно превышающего свои полномочия, а по задумке самого Макарова – уволиться после первого же дня, в который им пришлось выполнять самые нелепые поручения. Но что-то пошло не так. Новоиспеченные оперативницы серьезно от-неслись к работе и собрались ответственно нести службу с непростым наставником. Вместе брутальному Макарову и четверым дебютанткам предстоит блюсти порядок в неспокойном районе, раскрывать неочевидные дела, но при этом не забывать и про личную жизнь.

Качество: WEBRip 720p
Формат: MKV

Видео: MPEG-4 AVC, ~ 3000 Кбит/с, 1280x720, 25 кадр/с
Аудио: 48.0 kHz, AC3 Dolby Digital, 2/0 (L,R) ch, ~ 192 kbps
скриншот  скриншот  скриншот  скриншот  скриншот  

General
Unique ID : 186681539609165961500115377857837481764 (0x8C718E852FAC32D9B95CE3B3FA493F24)
Complete name : C:\00\Девушки с Макаровым.2021.WEB-DL 720p.Files-x\01. Девушки с Макаровым.2021.WEB-DL 720p.Files-x.mkv
Format : Matroska
File size : 586 MiB
Duration : 25mn 40s
Overall bit rate : 3 188 Kbps
Encoded date : UTC 2021-03-09 17:39:39
Writing application : mkvmerge v7.8.0 ('River Man') 32bit built on Apr 3 2015 12:11:22
Writing library : libebml v1.3.1 + libmatroska v1.4.2

Video
ID : 1
Format : AVC
Format/Info : Advanced Video Codec
Format profile : High@L3.1
Format settings, CABAC : Yes
Format settings, ReFrames : 1 frame
Codec ID : V_MPEG4/ISO/AVC
Duration : 25mn 40s
Bit rate mode : Variable
Bit rate : 2 933 Kbps
Maximum bit rate : 3 000 Kbps
Width : 1 280 pixels
Height : 720 pixels
Display aspect ratio : 16:9
Frame rate : 25.000 fps
Color space : YUV
Chroma subsampling : 4:2:0
Bit depth : 8 bits
Scan type : Progressive
Bits/(Pixel*Frame) : 0.127
Stream size : 539 MiB (92%)

Audio
ID : 2
Format : AC-3
Format/Info : Audio Coding 3
Mode extension : CM (complete main)
Codec ID : A_AC3
Duration : 25mn 40s
Bit rate mode : Constant
Bit rate : 192 Kbps
Channel(s) : 2 channels
Channel positions : Front: L R
Sampling rate : 44.1 KHz
Bit depth : 16 bits
Compression mode : Lossy
Delay relative to video : 9ms
Stream size : 35.3 MiB (6%)

Когда раздача ведётся путём добавления новых серий, при каждом добавлении создётся новый торрент. Чтобы начать докачку новой серии, пользователям необходимо сделать следующее:
(1) остановить скачивание,
(2) удалить старый торрент у себя из клиента (старые серии удалять не надо),
(3) скачать новый торрент и запустить его у себя в клиенте вместо старого, при этом указать клиенту путь в старую папку, куда и должно происходить скачивание новых серий.
Ваш клиент при этом должен произвести хеширование (проверку) старой папки (если не производит сам - помогите ему сделать это), и будет докачивать только те серии, которых у вас ещё нет. Старые серии при этом не удаляются, а продолжают раздаваться!
Eсли вы уже удалили старые серии, то предотвратить повторную закачку старых серий можно, отжав галочку в соответсвующих местах при запуске нового торрента. По возможности, желательно не удалять старые серии как можно дольше, чтобы релизёр не столько продолжал раздавать старые серии, а смог сконцентрироваться на новых.

pb.wtf



Скачать Девушки с Макаровым через торрент https://img11.lostpic.net/2021/03/09/eec0e608b3d16e0097007b3a0264a35a.jpg Скачать, смотреть онлайн Девушки с Макаровым бесплантно в хорошем качестве Описание: Желая подкинуть проблем Макарову, лучшему полицейскому московского района Бутово, новое начальство выделяет ему «подкрепление» – ... 9.4 10 15
Торрент: Зарегистрирован [2021-04-09 04:26] · скачан: 106 раз
Статус: √ проверено
Размер: 11.69 GB
Как cкачать? Как скачать Девушки с Макаровым через торрент | UTorrent

% Раздел Тема Автор DL S | L
TNT serials [ 17.2 GB ] Девушки с Макаровым / Сезон: 1 / Серии: 1-20 из 20 [2021 WEBRip 1080p] bober100 Скачать
2 | 0
Наши сериалы [ 6.58 GB ] Девушки с Макаровым / Сезон: 1 / Серии: 1-20 из 20 [2021 WEBRip-AVC] bober100 Скачать
3 | 0
TNT serials [ 6.99 GB ] Девушки с Макаровым / Сезон: 1 / Серии: 1-20 из 20 [2021 SATRip] bober100 Скачать
4 | 0
TNT serials [ 7.3 GB ] Девушки с Макаровым / Сезон: 1 / Серии: 1-20 из 20 [2021 WEBRip] bober100 Скачать
1 | 0
TNT serials [ 19.33 GB ] Девушки с Макаровым / Сезон: 1 / Серии: 1-20 из 20 [2021 HDTV 1080i] bober100 Скачать
3 | 0


Последний раз редактировалось: bober100 (2021-04-09 04:26), всего редактировалось 7 раз(а)

28-11-2019 20:33  

Отключить всю рекламу на сайте

10-03-2021 07:17 Девушки с Макаровым Скачать торрент  

девчонок жалко: профдеформация на 99% сделает из них пучеглазых упырей, погибающих от пластиковых стаканчиковpb.wtf



    Дорогой пользователь! Огромная просьба, поблагодарите релизера, оцените раздачу и оставьте свои комментарий, если Вы скачали Девушки с Макаровым через торрент бесплатно!
    Комментировать посты могут только пользователи прошедшие не сложную регистрацию
    Показать сообщения:    

    Девушки с Макаровым через торрент
    Скачать бесплатно Девушки с Макаровым
    Девушки с Макаровым скачать торрент
    Девушки с Макаровым смотреть онлайн
    Cкачать фильм Девушки с Макаровым бесплатно
    Девушки с Макаровым скачать торрент в хорошем качестве
    Девушки с Макаровым смотреть онлайн бесплатно в хорошем качестве


    Вы не можете начинать темы
    Вы не можете отвечать на сообщения
    Вы не можете редактировать свои сообщения
    Вы не можете удалять свои сообщения
    Вы не можете голосовать в опросах
    Вы не можете прикреплять файлы к сообщениям
    Вы можете скачивать файлы