Достать ножи: Стеклянная луковица

MVO

Добыча

Дубляж

Уэнсдэй

1 сезон

Тор

Дубляж

13 клиническая

1 сезон

Жестокая ночь

MVO

Одни из нас

1 сезон

Deluxe

pack

Рекомендуем

30

Пиратка

ВАЖНО

ВАЖНО

Ghostwire

Пиратка

jed

RePack

nioh2

RePack

RDR2

RePack

NEED FOR SPEED™ PAYBACK

RePack

скачать торрент

Кинопоиск HD

Острые козырьки 6 сезон

6 сезон

FAR CRY 6

RePack

скачать торрент

Лицензия

скачать торрент

MVO

1

1 сезон

скачать торрент

1 сезон

скачать торрент

Лицензия

  

Мавританец / The Mauritanian (Кевин Макдональд) [2021, Триллер, драма, WEB-DLRip-AVC] [MVO] [HDRezka] от MediaBit

Мавританец через торрент pb.wtf

Раздают: 2 [ 0 KB/s ]
Размер: 2.05 GB | Добавлен: 1 год 10 мес. назад | Торрент скачан:602 раза
Смотреть онлайн | Скачать | Поддержите нас   

09-03-2021 20:24 Мавританец Скачать торрент  


Мавританец / The Mauritanian
Информация Описание:
Название: Мавританец
Оригинальное название: The Mauritanian
Год выхода: 2021
Жанр: Триллер, драма
Режиссер: Кевин Макдональд
В ролях: Джоди Фостер, Тахар Рахим, Шейлин Вудли, Бенедикт Камбербэтч, Закари Ливай, Саамер Усмани, Дэвид Финн, Лэнгли Кирквуд, Кори Джонсон, Мэттью Марш, Мина Райанн, Андре Джейкобс, Роберт Хоббс, Стевель Марк, Мелисса Хайден

Описание: Реальная история заключенного в Гуантанамо, которого подозревали в совершении ужасного теракта, наконец, рассказана во всеуслышание. Не получивший официальных обвинений и возможности защиты в суде, Мохаммед Ульд Слахи провел в заключении более 6 лет. Только после этого он был удостоен права на адвокатов. Но и им в борьбе с правительственной машиной предстоит побороть личные сомнения. Ведь как можно быть до конца уверенными в невиновности заключенного?



Страна: Великобритания, США
Студия: Wonder Street, 30WEST, BBC Films
Продолжительность: 02:09:27
Перевод: Профессиональный (многоголосый, закадровый) - HDRezka



Информация о файле:
Кодек: AVC
Формат: MKV
Качество: WEB-DLRip-AVC
Видео: MPEG-4 AVC, 1024x552, 23.976 fps, 2073 kbps
Аудио RU: AAC-HE, 2 ch, 48 kHz, 96 kbps
Аудио EN: AAC-HE, 2 ch, 48 kHz, 96 kbps
Субтитры: Русские (Forced [HDRezka]), английские, французские
Навигация по главам: Нет

семпл
264 info: frame I:1401 Avg QP:11.72 size: 71220
x264 info: frame P:43504 Avg QP:16.16 size: 22144
x264 info: frame B:141339 Avg QP:18.90 size: 6714
General
Unique ID : 322462630647350855783325485806480335304 (0xF2980B2B6610655B5DE8AE6B4BED21C8)
Complete name : D:\Torrent files\The Mauritanian.2021.MVO.HDRezka.WEB-DLRip-AVC_wolf1245_MediaBit.mkv
Format : Matroska
Format version : Version 4
File size : 2.05 GiB
Duration : 2 h 9 min
Overall bit rate : 2 264 kb/s
Movie name : The Mauritanian.2021.MVO.HDRezka.WEB-DLRip-AVC_wolf1245_MediaBit
Encoded date : UTC 2021-03-09 20:39:47
Writing application : mkvmerge v55.0.0 ('Waiting For Space') 64-bit
Writing library : libebml v1.4.2 + libmatroska v1.6.4

Video
ID : 1
Format : AVC
Format/Info : Advanced Video Codec
Format profile : [email protected]
Format settings : CABAC / 12 Ref Frames
Format settings, CABAC : Yes
Format settings, Reference frames : 12 frames
Codec ID : V_MPEG4/ISO/AVC
Duration : 2 h 9 min
Bit rate : 2 073 kb/s
Width : 1 024 pixels
Height : 552 pixels
Display aspect ratio : 1.85:1
Frame rate mode : Constant
Frame rate : 23.976 (24000/1001) FPS
Color space : YUV
Chroma subsampling : 4:2:0
Bit depth : 8 bits
Scan type : Progressive
Bits/(Pixel*Frame) : 0.153
Stream size : 1.87 GiB (92%)
Title : _wolf1245_MediaBit
Writing library : x264 core 157 r2958 57baac4
Encoding settings : cabac=1 / ref=12 / deblock=1:-2:-1 / analyse=0x3:0x133 / me=umh / subme=10 / psy=1 / psy_rd=1.00:0.00 / mixed_ref=1 / me_range=32 / chroma_me=1 / trellis=2 / 8x8dct=1 / cqm=0 / deadzone=21,11 / fast_pskip=1 / chroma_qp_offset=-2 / threads=10 / lookahead_threads=2 / sliced_threads=0 / nr=0 / decimate=1 / interlaced=0 / bluray_compat=0 / constrained_intra=0 / bframes=10 / b_pyramid=2 / b_adapt=2 / b_bias=0 / direct=3 / weightb=1 / open_gop=0 / weightp=2 / keyint=240 / keyint_min=24 / scenecut=40 / intra_refresh=0 / rc_lookahead=60 / rc=2pass / mbtree=1 / bitrate=2073 / ratetol=1.0 / qcomp=0.60 / qpmin=0 / qpmax=69 / qpstep=4 / cplxblur=20.0 / qblur=0.5 / vbv_maxrate=50000 / vbv_bufsize=62500 / nal_hrd=none / filler=0 / ip_ratio=1.40 / aq=1:0.80
Language : English
Default : Yes
Forced : No
Color range : Limited
Color primaries : BT.709
Transfer characteristics : BT.709
Matrix coefficients : BT.709

Audio #1
ID : 2
Format : AAC LC SBR
Format/Info : Advanced Audio Codec Low Complexity with Spectral Band Replication
Commercial name : HE-AAC
Format settings : Explicit
Codec ID : A_AAC-2
Duration : 2 h 9 min
Bit rate : 96.0 kb/s
Channel(s) : 2 channels
Channel layout : L R
Sampling rate : 48.0 kHz
Frame rate : 23.438 FPS (2048 SPF)
Compression mode : Lossy
Stream size : 87.7 MiB (4%)
Title : MVO | HDRezka
Language : Russian
Default : Yes
Forced : No

Audio #2
ID : 3
Format : AAC LC SBR
Format/Info : Advanced Audio Codec Low Complexity with Spectral Band Replication
Commercial name : HE-AAC
Format settings : Explicit
Codec ID : A_AAC-2
Duration : 2 h 9 min
Bit rate : 96.0 kb/s
Channel(s) : 2 channels
Channel layout : L R
Sampling rate : 48.0 kHz
Frame rate : 23.438 FPS (2048 SPF)
Compression mode : Lossy
Stream size : 87.7 MiB (4%)
Title : ORIGINAL
Language : English
Default : No
Forced : No

Text #1
ID : 4
Format : UTF-8
Codec ID : S_TEXT/UTF8
Codec ID/Info : UTF-8 Plain Text
Duration : 2 h 5 min
Bit rate : 13 b/s
Count of elements : 267
Stream size : 12.5 KiB (0%)
Title : Forced
Language : Russian
Default : Yes
Forced : No

Text #2
ID : 5
Format : UTF-8
Codec ID : S_TEXT/UTF8
Codec ID/Info : UTF-8 Plain Text
Duration : 1 h 40 min
Bit rate : 6 b/s
Count of elements : 175
Stream size : 4.56 KiB (0%)
Title : Forced
Language : English
Default : No
Forced : No

Text #3
ID : 6
Format : UTF-8
Codec ID : S_TEXT/UTF8
Codec ID/Info : UTF-8 Plain Text
Duration : 2 h 1 min
Bit rate : 57 b/s
Count of elements : 1447
Stream size : 50.9 KiB (0%)
Language : English
Default : No
Forced : No

Text #4
ID : 7
Format : UTF-8
Codec ID : S_TEXT/UTF8
Codec ID/Info : UTF-8 Plain Text
Duration : 2 h 6 min
Bit rate : 60 b/s
Count of elements : 1646
Stream size : 56.2 KiB (0%)
Title : SDH
Language : English
Default : No
Forced : No

Text #5
ID : 8
Format : UTF-8
Codec ID : S_TEXT/UTF8
Codec ID/Info : UTF-8 Plain Text
Duration : 2 h 0 min
Bit rate : 64 b/s
Count of elements : 1887
Stream size : 57.4 KiB (0%)
Language : French
Default : No
Forced : No

Text #6
ID : 9
Format : UTF-8
Codec ID : S_TEXT/UTF8
Codec ID/Info : UTF-8 Plain Text
Duration : 2 h 8 min
Bit rate : 72 b/s
Count of elements : 2348
Stream size : 68.5 KiB (0%)
Title : SDH
Language : French
Default : No
Forced : No
Релиз от: amp; MediaBit




Скачать Мавританец через торрент https://i114.fastpic.ru/big/2021/0309/cd/67a2db324053b1c5bb45ee24fd7efecd.png Скачать, смотреть онлайн Мавританец бесплантно в хорошем качестве Описание: Название: Мавританец Оригинальное название: The Mauritanian Год выхода: 2021 Жанр: Триллер, драма Режиссер: Кевин Макдональд ... 10 10 6
Info! Золотая раздача, скачанное не засчитывается.
Торрент: Зарегистрирован [2021-03-09 20:48] · скачан: 602 раз
Статус: √ проверено
Размер: 2.05 GB
Как cкачать? Как скачать Мавританец через торрент | UTorrent

% Раздел Тема Автор DL S | L
Фильмы 2021 [DVDrip, WEB-DLRip, HDrip] (DUB, MVO) [ 2.86 GB ] Мавританец / The Mauritanian | iTunes | HDRip-AVC Lithuania Скачать
3 | 0

28-11-2019 20:33  


Отключить вcю реклaмy на сайте, в т.ч. и в плеере онлайн просмотра!

    Дорогой пользователь! Огромная просьба, поблагодарите релизера, оцените раздачу и оставьте свои комментарий, если Вы скачали Мавританец через торрент бесплатно!!
    Комментировать посты могут только пользователи прошедшие не сложную регистрацию
    Показать сообщения:    


    Мавританец через торрент
    Скачать бесплатно Мавританец
    Мавританец скачать торрент
    Мавританец смотреть онлайн
    Cкачать фильм Мавританец бесплатно
    Мавританец скачать торрент в хорошем качестве
    Мавританец смотреть онлайн бесплатно в хорошем качестве
    Вы не можете начинать темы
    Вы не можете отвечать на сообщения
    Вы не можете редактировать свои сообщения
    Вы не можете удалять свои сообщения
    Вы не можете голосовать в опросах
    Вы не можете прикреплять файлы к сообщениям
    Вы можете скачивать файлы
    Мавританец / The Mauritanian [2021, Триллер, драма, WEB-DLRip-AVC] [MVO] [HDRezka] от MediaBit смотреть онлайн, скачать торрент picoco.icu