Всегда рабочее зеркало просто перед .vidak.icu напиши любое слово или цифру, Пример http://12e.vidak.icu

>

7.4

iTunes

7.4

2 сезон

6.6

iTunes

1

7.4

2 сезон

7.2

iTunes

6.0

MVO

13

6.1

iTunes

8.3

Пиратка

30

ULTIMATE

pack

9.9

Лицензия

ВАЖНО

ИГРА 18+

pack

7.3

RePack

MK11

7.7

RePack

jed

7.8

RePack

fifa19

8.5

RePack

RDR2

RePack

NEED FOR SPEED™ PAYBACK

1 сезон

9 сезон

Бесстыжие 9 сезон

Все сериалы

все сериалы на PB.wtf

RePack

FAR CRY 5

Anonymous, доброй ночи, мы катастрофически не успеваем собрать деньги на оплату серверов, помогите нам пожалуйста 5,10,15р., для нас важна любая помощь . В качестве благодарности мы отключим Вам всю рекламу на сайте (укажите свой ник в строку Ваше имя)!

×
  
Magnet ссылка

Поворот не туда: Наследие / Wrong Turn: The Foundation (Майк П. Нельсон) [2021, Ужасы, BD Remux 1080p] DUB [iTunes] +MVO [HDRezka Studio] +AVO [A. Дольский] pb.wtf

Поворот не туда: Наследие через торрент pb.wtf

Размер: 31.03 GB | Добавлен: 10 мес. назад | Торрент скачан:47 раз
Смотреть онлайн Поворот не туда: Наследие | Скачать    Ребята, помогите собрать деньги на оплату серверов!!!

10-03-2021 21:41 Поворот не туда: Наследие Скачать торрент  

Поворот не туда: Наследие | Wrong Turn: The Foundation
Год выпуска: 2021
Страна: Германия, США, Великобритания
Студия: Constantin Film
Жанр: Ужасы
Продолжительность: 01:50:12
Перевод(ы):
#1: Дублированный | iTunes
#2: Профессиональный (многоголосый) | HDRezka Studio
#3: Авторский (одноголосый, закадровый) | A. Дольский
Субтитры: Русские (Forced), английские

Режиссер: Майк П. Нельсон

rating

В ролях: Шарлотта Вега, Адайн Брэдли, Билл Сейдж, Эмма Дюмон, Дилан Макти, Дэйзи Хэд, Мэттью Модайн, Вардаан Арора, Адриан Фавела, Тим ДеЗарн

Описание: Пожилой мужчина приезжает в городок Харперс-Ферри, откуда шесть недель назад его дочь в компании друзей отправилась в поход по Аппалачской тропе и с тех пор пропала. Несмотря на предупреждения местных, ребята свернули с туристического маршрута и вскоре столкнулись с сообществом людей, которые ещё до Гражданской войны основали тут поселение. И которые очень не любят чужаков.

Качество: BD Remux 1080p
Формат: MKV

Видео: MPEG-4 AVC, 1920x1080, 35.7 Mbit/s, 23.976 fps
Аудио #01: 48 kHz, AC3, 5.1, 384 Kbps | Дублированный | iTunes | RUS |
Аудио #02: 48 kHz, AC3, 5.1, 448 Kbps | Профессиональный многоголосый | HDRezka Studio | RUS |
Аудио #03: 48 kHz, AC3, 5.1, 384 Kbps | Авторский | Дольский | RUS |
Аудио #04: 48 kHz, DTS-HD MA, 5.1, 3396 Kbps | Оригинал | ENG |
скриншот  скриншот  скриншот  скриншот  скриншот  

General
Unique ID : 89887987300283695060675861631567832306 (0x439FCBF07BAF7073F6938F48EDBAA4F2)
Complete name : F:VideoWrong.Turn.2021.BDREMUX.1080p.seleZen.mkv
Format : Matroska
Format version : Version 4
File size : 31.0 GiB
Duration : 1 h 50 min
Overall bit rate mode : Variable
Overall bit rate : 40.3 Mb/s
Movie name : Wrong Turn 2021 from seleZen
Encoded date : UTC 2021-03-10 21:50:46
Writing application : mkvmerge v55.0.0 ('Waiting For Space') 64-bit
Writing library : libebml v1.4.2 + libmatroska v1.6.4

Video
ID : 1
Format : AVC
Format/Info : Advanced Video Codec
Format profile : High@L4.1
Format settings : CABAC / 4 Ref Frames
Format settings, CABAC : Yes
Format settings, Reference : 4 frames
Format settings, GOP : M=3, N=12
Codec ID : V_MPEG4/ISO/AVC
Duration : 1 h 50 min
Bit rate mode : Variable
Bit rate : 35.7 Mb/s
Maximum bit rate : 37.0 Mb/s
Width : 1 920 pixels
Height : 1 080 pixels
Display aspect ratio : 16:9
Frame rate mode : Constant
Frame rate : 23.976 (24000/1001) FPS
Color space : YUV
Chroma subsampling : 4:2:0
Bit depth : 8 bits
Scan type : Progressive
Bits/(Pixel*Frame) : 0.718
Stream size : 27.5 GiB (89%)
Language : English
Default : No
Forced : No

Audio #1
ID : 2
Format : AC-3
Format/Info : Audio Coding 3
Commercial name : Dolby Digital
Codec ID : A_AC3
Duration : 1 h 50 min
Bit rate mode : Constant
Bit rate : 384 kb/s
Channel(s) : 6 channels
Channel layout : L R C LFE Ls Rs
Sampling rate : 48.0 kHz
Frame rate : 31.250 FPS (1536 SPF)
Compression mode : Lossy
Stream size : 303 MiB (1%)
Title : iTunes
Language : Russian
Service kind : Complete Main
Default : Yes
Forced : Yes

Audio #2
ID : 3
Format : AC-3
Format/Info : Audio Coding 3
Commercial name : Dolby Digital
Codec ID : A_AC3
Duration : 1 h 50 min
Bit rate mode : Constant
Bit rate : 448 kb/s
Channel(s) : 6 channels
Channel layout : L R C LFE Ls Rs
Sampling rate : 48.0 kHz
Frame rate : 31.250 FPS (1536 SPF)
Compression mode : Lossy
Stream size : 353 MiB (1%)
Title : MVO [HDRezka Studio [Censored]]
Language : Russian
Service kind : Complete Main
Default : No
Forced : No

Audio #3
ID : 4
Format : AC-3
Format/Info : Audio Coding 3
Commercial name : Dolby Digital
Codec ID : A_AC3
Duration : 1 h 50 min
Bit rate mode : Constant
Bit rate : 384 kb/s
Channel(s) : 6 channels
Channel layout : L R C LFE Ls Rs
Sampling rate : 48.0 kHz
Frame rate : 31.250 FPS (1536 SPF)
Compression mode : Lossy
Stream size : 303 MiB (1%)
Title : AVO [А. Дольский]
Language : Russian
Service kind : Complete Main
Default : No
Forced : No

Audio #4
ID : 5
Format : DTS XLL
Format/Info : Digital Theater Systems
Commercial name : DTS-HD Master Audio
Codec ID : A_DTS
Duration : 1 h 50 min
Bit rate mode : Variable
Bit rate : 3 396 kb/s
Channel(s) : 6 channels
Channel layout : C L R Ls Rs LFE
Sampling rate : 48.0 kHz
Frame rate : 93.750 FPS (512 SPF)
Bit depth : 24 bits
Compression mode : Lossless
Stream size : 2.61 GiB (8%)
Title : Original
Language : English
Default : No
Forced : No

Text #1
ID : 6
Format : UTF-8
Codec ID : S_TEXT/UTF8
Codec ID/Info : UTF-8 Plain Text
Duration : 1 h 47 min
Bit rate : 3 b/s
Count of elements : 52
Stream size : 2.45 KiB (0%)
Title : Forced [HDRezka Studio]
Language : Russian
Default : No
Forced : No

Text #2
ID : 7
Format : UTF-8
Codec ID : S_TEXT/UTF8
Codec ID/Info : UTF-8 Plain Text
Duration : 1 h 42 min
Bit rate : 45 b/s
Count of elements : 1233
Stream size : 34.1 KiB (0%)
Title : Full
Language : English
Default : No
Forced : No

Text #3
ID : 8
Format : UTF-8
Codec ID : S_TEXT/UTF8
Codec ID/Info : UTF-8 Plain Text
Duration : 1 h 47 min
Bit rate : 52 b/s
Count of elements : 1512
Stream size : 41.2 KiB (0%)
Title : SDH
Language : English
Default : No
Forced : No

Menu
00:00:00.000 : en:Chapter 01
00:05:22.364 : en:Chapter 02
00:14:39.170 : en:Chapter 03
00:20:43.826 : en:Chapter 04
00:25:05.129 : en:Chapter 05
00:32:36.538 : en:Chapter 06
00:39:30.952 : en:Chapter 07
00:44:12.775 : en:Chapter 08
00:48:35.329 : en:Chapter 09
00:58:29.381 : en:Chapter 10
01:06:07.172 : en:Chapter 11
01:14:34.970 : en:Chapter 12
01:22:48.130 : en:Chapter 13
01:29:33.535 : en:Chapter 14
01:38:13.346 : en:Chapter 15
01:43:54.061 : en:Chapter 16

pb.wtf



Скачать Поворот не туда: Наследие через торрент https://a.radikal.ru/a02/2103/f7/6fd3aae96f62.jpg Скачать, смотреть онлайн Поворот не туда: Наследие бесплантно в хорошем качестве Описание: Пожилой мужчина приезжает в городок Харперс-Ферри, откуда шесть недель назад его дочь в компании друзей отправилась в поход по ... 10 10 3
Торрент: Зарегистрирован [2021-03-11 03:18] · скачан: 47 раз
Статус: √ проверено
Размер: 31.03 GB
Как cкачать? Как скачать Поворот не туда: Наследие через торрент | UTorrent

% Раздел Тема Автор DL S | L
Фильмы 2021 [DVDrip, WEB-DLRip, HDrip] (DUB, MVO) [ 1.41 GB ] Поворот не туда: Наследие / Wrong Turn: The Foundation [2021 BDRip] - Twi7ter Скачать
16 | 0
Фильмы 2021 [DVDrip, WEB-DLRip, HDrip] (DUB, MVO) [ 2.13 GB ] Поворот не туда: Наследие / Wrong Turn: The Foundation [2021 BDRip] - Twi7ter Скачать
15 | 0
Фильмы 2021 [DVDrip, WEB-DLRip, HDrip] (DUB, MVO) [ 2.81 GB ] Поворот не туда: Наследие / Wrong Turn: The Foundation [2021 HDRip-AVC] [DUB MVO AVO] [ HDRezka Studio Андрей Дольский] от MediaBit Lithuania Скачать
1 | 0
Фильмы 2021 [DVDrip, WEB-DLRip, HDrip] (DUB, MVO) [ 747 MB ] Поворот не туда: Наследие / Wrong Turn: The Foundation [2021 HDRip] bober100 Скачать
1 | 0
Фильмы 2021 [DVDrip, WEB-DLRip, HDrip] (DUB, MVO) [ 1.41 GB ] Поворот не туда: Наследие / Wrong Turn: The Foundation [2021 BDRip] bober100 Скачать
2 | 0
Фильмы [HD 720p, 1080p] (Хороший звук DUB, MVO) [ 7.41 GB ] Поворот не туда: Наследие / Wrong Turn: The Foundation [2021 BDRip 720p] bober100 Скачать
1 | 0
Фильмы [HD 720p, 1080p] (Хороший звук DUB, MVO) [ 6.89 GB ] Поворот не туда: Наследие / Wrong Turn: The Foundation [2021 BDRip 720p] MVO [HDRezka Studio] +AVO [A. Дольский] bober100 Скачать
1 | 0

28-11-2019 20:33  

Отключить всю рекламу на сайте

11-03-2021 05:10 Поворот не туда: Наследие Скачать торрент  

Судя по фильму, режиссёр и правда сделал поворот не туда. pb.wtf



    Дорогой пользователь! Огромная просьба, поблагодарите релизера, оцените раздачу и оставьте свои комментарий, если Вы скачали Поворот не туда: Наследие через торрент бесплатно!
    Комментировать посты могут только пользователи прошедшие не сложную регистрацию
    Показать сообщения:    

    Поворот не туда: Наследие через торрент
    Скачать бесплатно Поворот не туда: Наследие
    Поворот не туда: Наследие скачать торрент
    Поворот не туда: Наследие смотреть онлайн
    Cкачать фильм Поворот не туда: Наследие бесплатно
    Поворот не туда: Наследие скачать торрент в хорошем качестве
    Поворот не туда: Наследие смотреть онлайн бесплатно в хорошем качестве


    Вы не можете начинать темы
    Вы не можете отвечать на сообщения
    Вы не можете редактировать свои сообщения
    Вы не можете удалять свои сообщения
    Вы не можете голосовать в опросах
    Вы не можете прикреплять файлы к сообщениям
    Вы можете скачивать файлы