1 сезон

1 сезон

iTunes

1

КиноПоиск HD

Кинопоиск HD

iTunes

13

1 сезон

RePack

30

Новинка

ВАЖНО

ИГРА 18+

pack

RePack

MK11
pack

Легкие деньги

RePack

jed

RePack

fifa19

RePack

RDR2

RePack

NEED FOR SPEED™ PAYBACK

4 сезон

9 сезон

Бесстыжие 9 сезон

Все сериалы

все сериалы на PB.wtf

RePack

FAR CRY 5
  
Magnet ссылка

День города (Алексей Харитонов) [2021, Комедия, WEB-DL 1080p] [iTunes] pb.wtf

День города через торрент pb.wtf

Раздают: 23 [ 55 KB/s ]
Размер: 3.16 GB | Добавлен: 16 д. назад | Торрент скачан:202 раза
Скачать  

11-03-2021 07:27 День города Скачать торрент  

День города
Год выпуска: 2021
Страна: Россия
Выпущено: Liho! Production, Planeta Inform
Жанр: Комедия
Продолжительность: 01:30:58
Перевод: Не требуется | iTunes
Субтитры: отсутствуют

Режиссер: Алексей Харитонов



В ролях: Катерина Шпица, Антон Филипенко, Павел Ворожцов, Ольга Дибцева, Игорь Хрипунов, Максим Лагашкин, Светлана Камынина, Николай Шрайбер, Светлана Левичева, Евгений Михеев и др.

Описание: Приезд президента – очень ответственное мероприятие для любого провинциального города. На любом этапе подготовки что-то может пойти не так. Но никто в Любякино не ожидал, что не так пойдет всё.

Качество: WEB-DL 1080p
Формат: MKV

Видео: MPEG-4 AVC, 1920x806, 24.000 fps, 4586 kbps
Аудио: 48 kHz, AC3, 3/2 (L,C,R,l,r) + LFE ch, ~384 kbps
скриншот  скриншот  скриншот  скриншот  

Complete name : Den.goroda.2021.WEB-DL.1080p.ELEKTRI4KA.UNIONGANG.mkv
Format : Matroska
Format version : Version 4
File size : 3.16 GiB
Duration : 1 h 30 min
Overall bit rate : 4 972 kb/s
Movie name : Den.goroda.2021.WEB-DL.1080p.ELEKTRI4KA.UNIONGANG.
Encoded date : UTC 2021-03-26 11:58:40
Writing application : mkvmerge v8.3.0 ('Over the Horizon') 64bit
Writing library : libebml v1.3.1 + libmatroska v1.4.2

Video
ID : 1
Format : AVC
Format/Info : Advanced Video Codec
Format profile : High@L4
Format settings : CABAC / 5 Ref Frames
Format settings, CABAC : Yes
Format settings, Reference frames : 5 frames
Codec ID : V_MPEG4/ISO/AVC
Duration : 1 h 30 min
Bit rate : 4 586 kb/s
Width : 1 920 pixels
Height : 806 pixels
Display aspect ratio : 2.40:1
Frame rate mode : Constant
Frame rate : 24.000 FPS
Color space : YUV
Chroma subsampling : 4:2:0
Bit depth : 8 bits
Scan type : Progressive
Bits/(Pixel*Frame) : 0.123
Stream size : 2.91 GiB (92%)
Language : English
Default : Yes
Forced : No
Color range : Limited
Color primaries : BT.709
Transfer characteristics : BT.709
Matrix coefficients : BT.709

Audio
ID : 2
Format : AC-3
Format/Info : Audio Coding 3
Commercial name : Dolby Digital
Codec ID : A_AC3
Duration : 1 h 30 min
Bit rate mode : Constant
Bit rate : 384 kb/s
Channel(s) : 6 channels
Channel layout : L R C LFE Ls Rs
Sampling rate : 48.0 kHz
Frame rate : 31.250 FPS (1536 SPF)
Compression mode : Lossy
Stream size : 250 MiB (8%)
Title : Original (iTunes)
Language : Russian
Service kind : Complete Main
Default : Yes
Forced : No

Menu
00:00:00.000 : en:Глава 1
00:08:11.916 : en:Глава 2
00:16:31.916 : en:Глава 3
00:24:32.916 : en:Глава 4
00:32:50.082 : en:Глава 5
00:41:35.248 : en:Глава 6
00:49:45.831 : en:Глава 7
00:58:23.206 : en:Глава 8
01:06:47.997 : en:Глава 9
01:14:49.622 : en:Глава 10
01:22:58.788 : en:Глава 11

pb.wtf



Скачать День города через торрент https://pic1.kartinco.top/new/img/2021-03/11/u2qoxvwxp64rj9jb9vrk3m1bz.png Скачать фильм День города через торрент бесплантно в хорошем качестве Описание: Приезд президента – очень ответственное мероприятие для любого провинциального города. На любом этапе подготовки что-то может ... 9.1 10 35
Торрент: Зарегистрирован [2021-03-27 03:12] · скачан: 202 раз
Статус: √ проверено
Размер: 3.16 GB
Как cкачать? Как скачать День города через торрент | UTorrent

% Раздел Тема Автор DL S | L
Наши новые фильмы 2020 - 2021 [ 1.46 GB ] День города [2021 WEB-DLRip] bober100 Скачать
28 | 0
Развлекательные телепередачи и шоу, приколы и юмор [ 432 MB ] Москва. Воробьевы горы. День города. Альфа-шоу 4D посвященное 864-летию Москвы [2011 ТВ-Шоу SATRip] =GAS= Скачать
1 | 0


Последний раз редактировалось: bober100 (2021-03-27 03:12), всего редактировалось 1 раз

28-11-2019 20:33  

Отключить всю рекламу на сайте

11-03-2021 18:12 День города Скачать торрент  

Песня, браво. Прям не ожидал. Отличный фильм, скачал на дурака, не слышал даже про него. Понравилось, легко, с приличным юмором. Спасибо.
По горячился я посмотрев половину, конец тухловат, первая половина ничего так.pb.wtf



11-03-2021 21:48 День города Скачать торрент  

Хоть фильм и от ТНТ, но в сценаристах нет ни Слепакова, ни Юнусова, ни Харламова, ни других пидоюмористов. И как это ни странно получился хороший фильм, без шуток про говно и размер члена. Прямо таки много эпизодов где смешно. Будем надеяться этот фильм представитель нового поколения, а не исключение из правил.

Автору раздачи и раздающим респект и уважуха!pb.wtf



14-03-2021 19:36 День города Скачать торрент  

Зашел на Кинопоиск ,глянул рецензии , смотреть обязательно!))
Тем болей ,что вату пучит от него )
p.s Позолотил сей шедевр!pb.wtf



31-03-2021 21:14 День города Скачать торрент  

Первая половина этого кина довольно бодрая и местами смешная, что необычно для современных рашкамеди, но вторая половина - нудятина с запросом на бОльшее. Видимо, тэнэтэшная сладколижущая шобла решила замахнуться на современную сатиру, но как обычно - жидко обгадилась! А ведь могли бы... но не это сборище псевдосатириков, у которых вечно очко жим-жим. Вобщем - посмотрел- удалил- забыл.pb.wtf



07-04-2021 22:48 День города Скачать торрент  

Хороший фильм, добрый, с юмором. Я даже пару раз улыбнулся, чего не было уже несколько лет, от ютубовской и комедиклабовской дебилизации.
пс. а баба с камнем в конце, просто шедевр концовки! =)pb.wtf



    Дорогой пользователь! Огромная просьба, поблагодарите релизера, оцените раздачу и оставьте свои комментарий, если Вы скачали День города через торрент бесплатно! Внесите свою лепту в развитие PiratBit!
    Комментировать посты могут только пользователи прошедшие не сложную регистрацию
    Показать сообщения:    

    День города через торрент
    Скачать бесплатно День города
    День города скачать торрент
    День города смотреть онлайн
    Cкачать фильм День города бесплатно
    День города скачать торрент в хорошем качестве
    День города смотреть онлайн бесплатно в хорошем качестве


    Вы не можете начинать темы
    Вы не можете отвечать на сообщения
    Вы не можете редактировать свои сообщения
    Вы не можете удалять свои сообщения
    Вы не можете голосовать в опросах
    Вы не можете прикреплять файлы к сообщениям
    Вы можете скачивать файлы