Присоединяйтесь к нам в Telegram!, здесь всегда актуальный адрес сайта, оперативная поддержка и многое другое!!

>

5.9

iTunes

7.4

iTunes

9.4

1 сезон

1

7.4

2 сезон

7.2

iTunes

7.3

1 сезон

13

6.1

iTunes

8.3

GOG

30

ULTIMATE

pack

9.9

Лицензия

ВАЖНО

ИГРА 18+

pack

7.3

RePack

MK11

7.7

RePack

jed

7.8

RePack

fifa19

8.5

RePack

RDR2

RePack

NEED FOR SPEED™ PAYBACK

5 сезон

9 сезон

Бесстыжие 9 сезон

Все сериалы

все сериалы на PB.wtf

RePack

FAR CRY 5

Anonymous, добрый вечер, мы катастрофически не успеваем собрать деньги на оплату серверов, помогите нам пожалуйста 5,10,15р., для нас важна любая помощь . В качестве благодарности мы отключим Вам всю рекламу на сайте (укажите свой ник в строку Ваше имя)!

×
  
Magnet ссылка

По наклонной / Cherry (Энтони Руссо, Джо Руссо) [2021, Драма, криминал, WEB-DLRip-AVC] DUB [Пифагор] от MediaBit pb.wtf

По наклонной через торрент pb.wtf

Раздают: 2 [ 0 KB/s ]
Размер: 2.05 GB | Добавлен: 8 мес. назад | Торрент скачан:225 раз
Смотреть онлайн По наклонной | Скачать    Ребята, помогите собрать деньги на оплату серверов!!!

12-03-2021 21:10 По наклонной Скачать торрент  


По наклонной / Cherry
Информация о фильме:
Название: По наклонной
Оригинальное название: Cherry
Год выхода: 2021
Жанр: Драма, криминал
Режиссер: Энтони Руссо, Джо Руссо
В ролях: Том Холланд, Сиэра Браво, Джек Рейнор, Майкл Рисполи, Джеффри Уолберг, Форрест Гудлак, Майкл Гандольфини, Кайл Харви, Пуч Холл, Дэймон Уайанс мл., Томас Леннон, Келли Бёрглунд, Хосе Пабло Кантилльо, Николь Форестер, Джэми Брюэр, Фионн О`Ши, Сэм Клемметт, Адам Лонг

Описание: Армейский медик Нико Уокер вернулся из Ирака с недиагностированным посттравматическим синдромом. В попытке совладать с тяжёлыми воспоминаниями о войне он начинает злоупотреблять опиатами и в итоге, чтобы поддержать свою зависимость, берётся грабить банки.



Страна: США
Студия: The Hideaway Entertainment, AGBO, Kasbah Films
Продолжительность: 02:21:02
Перевод: Дублированный - Пифагор



Информация о файле:
Кодек: AVC
Формат: MKV
Качество: WEB-DLRip-AVC
Видео: MPEG-4 AVC, 1024x428, 23.976 fps, 1887 kbps
Аудио RU: AAC-HE, 2 ch, 48 kHz, 96 kbps
Аудио EN: AAC-HE, 2 ch, 48 kHz, 96 kbps
Субтитры: Русские (Forced, Full, SDH), украинские (Full, SDH), английские, испанские, французские, немецкие, итальянские, португальские | ATVP
Навигация по главам: Нет

x264 info: frame I:1377 Avg QP:11.72 size: 72386
x264 info: frame P:53752 Avg QP:15.12 size: 21707
x264 info: frame B:147763 Avg QP:18.57 size: 4927
---------------------------------------------------
General
Unique ID : 332751563570336586398617231241503764772 (0xFA559EBA6DC8BF0009B2BF89B5D2F124)
Complete name : D:uTorrentРипы_от_wolf1245_MediaBitCherry.2021.DUB.WEB-DLRip-AVC_wolf1245_MediaBit.mkv
Format : Matroska
Format version : Version 4
File size : 2.05 GiB
Duration : 2 h 21 min
Overall bit rate : 2 081 kb/s
Movie name : Cherry.2021.DUB.WEB-DLRip-AVC_wolf1245_MediaBit
Encoded date : UTC 2021-03-12 18:27:06
Writing application : mkvmerge v55.0.0 ('Waiting For Space') 64-bit
Writing library : libebml v1.4.2 + libmatroska v1.6.4
Video
ID : 1
Format : AVC
Format/Info : Advanced Video Codec
Format profile : High@L4.1
Format settings : CABAC / 12 Ref Frames
Format settings, CABAC : Yes
Format settings, Reference frames : 12 frames
Codec ID : V_MPEG4/ISO/AVC
Duration : 2 h 21 min
Bit rate : 1 887 kb/s
Width : 1 024 pixels
Height : 428 pixels
Display aspect ratio : 2.40:1
Frame rate mode : Constant
Frame rate : 23.976 (24000/1001) FPS
Color space : YUV
Chroma subsampling : 4:2:0
Bit depth : 8 bits
Scan type : Progressive
Bits/(Pixel*Frame) : 0.180
Stream size : 1.86 GiB (91%)
Title : _wolf1245_MediaBit
Writing library : x264 core 157 r2958 57baac4
Encoding settings : cabac=1 / ref=12 / deblock=1:0:0 / analyse=0x3:0x133 / me=umh / subme=10 / psy=1 / psy_rd=1.00:0.00 / mixed_ref=1 / me_range=32 / chroma_me=1 / trellis=2 / 8x8dct=1 / cqm=0 / deadzone=21,11 / fast_pskip=1 / chroma_qp_offset=-2 / threads=10 / lookahead_threads=2 / sliced_threads=0 / nr=0 / decimate=1 / interlaced=0 / bluray_compat=0 / constrained_intra=0 / bframes=10 / b_pyramid=2 / b_adapt=2 / b_bias=0 / direct=3 / weightb=1 / open_gop=0 / weightp=2 / keyint=240 / keyint_min=24 / scenecut=40 / intra_refresh=0 / rc_lookahead=60 / rc=2pass / mbtree=1 / bitrate=1887 / ratetol=1.0 / qcomp=0.60 / qpmin=0 / qpmax=69 / qpstep=4 / cplxblur=20.0 / qblur=0.5 / vbv_maxrate=50000 / vbv_bufsize=62500 / nal_hrd=none / filler=0 / ip_ratio=1.40 / aq=1:0.80
Language : English
Default : Yes
Forced : No
Color range : Limited
Color primaries : BT.709
Transfer characteristics : BT.709
Matrix coefficients : BT.709
Audio #1
ID : 2
Format : AAC LC SBR
Format/Info : Advanced Audio Codec Low Complexity with Spectral Band Replication
Commercial name : HE-AAC
Format settings : Implicit
Codec ID : A_AAC-2
Duration : 2 h 21 min
Bit rate : 96.0 kb/s
Channel(s) : 2 channels
Channel layout : L R
Sampling rate : 48.0 kHz
Frame rate : 23.438 FPS (2048 SPF)
Compression mode : Lossy
Stream size : 96.8 MiB (5%)
Title : DUB | Пифагор
Language : Russian
Default : Yes
Forced : No
Audio #2
ID : 3
Format : AAC LC SBR
Format/Info : Advanced Audio Codec Low Complexity with Spectral Band Replication
Commercial name : HE-AAC
Format settings : Implicit
Codec ID : A_AAC-2
Duration : 2 h 21 min
Bit rate : 96.0 kb/s
Channel(s) : 2 channels
Channel layout : L R
Sampling rate : 48.0 kHz
Frame rate : 23.438 FPS (2048 SPF)
Compression mode : Lossy
Stream size : 96.8 MiB (5%)
Title : ORIGINAL
Language : English
Default : No
Forced : No
Text #1
ID : 4
Format : UTF-8
Codec ID : S_TEXT/UTF8
Codec ID/Info : UTF-8 Plain Text
Duration : 2 h 11 min
Bit rate : 0 b/s
Count of elements : 29
Stream size : 946 Bytes (0%)
Title : Forced
Language : Russian
Default : Yes
Forced : No
Text #2
ID : 5
Format : UTF-8
Codec ID : S_TEXT/UTF8
Codec ID/Info : UTF-8 Plain Text
Duration : 2 h 20 min
Bit rate : 79 b/s
Count of elements : 1649
Stream size : 82.3 KiB (0%)
Title : Russian
Language : Russian
Default : No
Forced : No
Text #3
ID : 6
Format : UTF-8
Codec ID : S_TEXT/UTF8
Codec ID/Info : UTF-8 Plain Text
Duration : 2 h 20 min
Bit rate : 106 b/s
Count of elements : 1997
Stream size : 109 KiB (0%)
Title : SDH
Language : Russian
Default : No
Forced : No
Text #4
ID : 7
Format : UTF-8
Codec ID : S_TEXT/UTF8
Codec ID/Info : UTF-8 Plain Text
Duration : 2 h 20 min
Bit rate : 72 b/s
Count of elements : 1645
Stream size : 74.8 KiB (0%)
Title : Ukrainian
Language : Ukrainian
Default : No
Forced : No
Text #5
ID : 8
Format : UTF-8
Codec ID : S_TEXT/UTF8
Codec ID/Info : UTF-8 Plain Text
Duration : 2 h 20 min
Bit rate : 91 b/s
Count of elements : 1997
Stream size : 94.9 KiB (0%)
Title : SDH
Language : Ukrainian
Default : No
Forced : No
Text #6
ID : 9
Format : UTF-8
Codec ID : S_TEXT/UTF8
Codec ID/Info : UTF-8 Plain Text
Duration : 2 h 10 min
Bit rate : 57 b/s
Count of elements : 1618
Stream size : 55.1 KiB (0%)
Title : English
Language : English
Default : No
Forced : No
Text #7
ID : 10
Format : UTF-8
Codec ID : S_TEXT/UTF8
Codec ID/Info : UTF-8 Plain Text
Duration : 2 h 20 min
Bit rate : 48 b/s
Count of elements : 1410
Stream size : 50.2 KiB (0%)
Title : German
Language : German
Default : No
Forced : No
Text #8
ID : 11
Format : UTF-8
Codec ID : S_TEXT/UTF8
Codec ID/Info : UTF-8 Plain Text
Duration : 2 h 20 min
Bit rate : 44 b/s
Count of elements : 1616
Stream size : 45.9 KiB (0%)
Title : French
Language : French
Default : No
Forced : No
Text #9
ID : 12
Format : UTF-8
Codec ID : S_TEXT/UTF8
Codec ID/Info : UTF-8 Plain Text
Duration : 2 h 20 min
Bit rate : 58 b/s
Count of elements : 1658
Stream size : 60.5 KiB (0%)
Title : European Spanish
Language : Spanish
Default : No
Forced : No
Text #10
ID : 13
Format : UTF-8
Codec ID : S_TEXT/UTF8
Codec ID/Info : UTF-8 Plain Text
Duration : 2 h 20 min
Bit rate : 50 b/s
Count of elements : 1641
Stream size : 52.3 KiB (0%)
Title : Italian
Language : Italian
Default : No
Forced : No
Text #11
ID : 14
Format : UTF-8
Codec ID : S_TEXT/UTF8
Codec ID/Info : UTF-8 Plain Text
Duration : 2 h 20 min
Bit rate : 49 b/s
Count of elements : 1623
Stream size : 50.7 KiB (0%)
Title : Portuguese
Language : Portuguese
Default : No
Forced : No
Релиз от: &
Автор релиза:
pb.wtf



Скачать По наклонной через торрент https://i114.fastpic.ru/big/2021/0312/2c/97edb8cf6f21c95f04305d486ebdce2c.jpg Скачать, смотреть онлайн По наклонной бесплантно в хорошем качестве Описание: Армейский медик Нико Уокер вернулся из Ирака с недиагностированным посттравматическим синдромом. В попытке совладать с тяжёлыми ... 10 10 3
Торрент: Зарегистрирован [2021-03-12 21:10] · скачан: 225 раз
Статус: T временная
Размер: 2.05 GB
Как cкачать? Как скачать По наклонной через торрент | UTorrent

28-11-2019 20:33  

Отключить всю рекламу на сайте

    Дорогой пользователь! Огромная просьба, поблагодарите релизера, оцените раздачу и оставьте свои комментарий, если Вы скачали По наклонной через торрент бесплатно!
    Комментировать посты могут только пользователи прошедшие не сложную регистрацию
    Показать сообщения:    

    По наклонной через торрент
    Скачать бесплатно По наклонной
    По наклонной скачать торрент
    По наклонной смотреть онлайн
    Cкачать фильм По наклонной бесплатно
    По наклонной скачать торрент в хорошем качестве
    По наклонной смотреть онлайн бесплатно в хорошем качестве


    Вы не можете начинать темы
    Вы не можете отвечать на сообщения
    Вы не можете редактировать свои сообщения
    Вы не можете удалять свои сообщения
    Вы не можете голосовать в опросах
    Вы не можете прикреплять файлы к сообщениям
    Вы можете скачивать файлы