Присоединяйтесь к нам в Telegram!, здесь всегда актуальный адрес сайта, оперативная поддержка и многое другое!!

>

5.9

iTunes

7.4

iTunes

9.4

1 сезон

1

7.4

2 сезон

7.2

iTunes

7.3

1 сезон

13

6.1

iTunes

8.3

GOG

30

ULTIMATE

pack

9.9

Лицензия

ВАЖНО

ИГРА 18+

pack

7.3

RePack

MK11

7.7

RePack

jed

7.8

RePack

fifa19

8.5

RePack

RDR2

RePack

NEED FOR SPEED™ PAYBACK

5 сезон

9 сезон

Бесстыжие 9 сезон

Все сериалы

все сериалы на PB.wtf

RePack

FAR CRY 5

Anonymous, добрый день, мы катастрофически не успеваем собрать деньги на оплату серверов, помогите нам пожалуйста 5,10,15р., для нас важна любая помощь . В качестве благодарности мы отключим Вам всю рекламу на сайте (укажите свой ник в строку Ваше имя)!

×
  
Magnet ссылка

День «да» / Yes Day (Мигель Артета) [2021, Комедия, семейный, WEB-DLRip-AVC] DUB [Netflix] от MediaBit pb.wtf

День «да» через торрент pb.wtf

Размер: 1.45 GB | Добавлен: 8 мес. назад | Торрент скачан:237 раз
Смотреть онлайн День «да» | Скачать    Ребята, помогите собрать деньги на оплату серверов!!!

13-03-2021 09:35 День «да» Скачать торрент  


День «да» / Yes Day
Информация о фильме:
Название: День «да»
Оригинальное название: Yes Day
Год выхода: 2021
Жанр: Комедия, семейный
Режиссер: Мигель Артета

В ролях: Дженнифер Гарнер, Эдгар Рамирес, Дженна Ортега, Джулиан Лернер, Эверли Карганилья, Трейси Томс, Фортун Феймстер, Нат Факсон, Артуро Кастро, Хейден Сзето

Описание: Устав постоянно говорить «нет», семейная пара разрешает детям весь день устанавливать свои правила и на все их просьбы отвечать «да»... Так начинается весёлое семейное приключение.



Страна: США
Студия: Film 360, Grey Matters Productions
Продолжительность: 01:29:00
Перевод: Профессиональный (дублированный) - Невафильм



Информация о файле:
Кодек: AVC
Формат: MKV
Качество: WEB-DLRip-AVC
Видео: MPEG-4 AVC, 1024x512, 24.000 fps, 1868 kbps
Аудио RU: AC3, 6 ch, 48 kHz, 448 kbps
Субтитры: Русские (Forced, Full), английские (Forced, SDH)
Навигация по главам: Нет

x264 info: frame I:1367 Avg QP:14.71 size: 69127
x264 info: frame P:31359 Avg QP:19.74 size: 19570
x264 info: frame B:96377 Avg QP:22.49 size: 4823
--------------------------------------------------
General
Unique ID : 110537435635156584675746880941042784630 (0x5328BC589349B18582ED291ECA095976)
Complete name : D:uTorrentРипы_от_wolf1245_MediaBitYes Day.2021.DUB.Netflix.WEB-DLRip-AVC_wolf1245_MediaBit.mkv
Format : Matroska
Format version : Version 4
File size : 1.45 GiB
Duration : 1 h 29 min
Overall bit rate : 2 316 kb/s
Movie name : Yes Day.2021.DUB.Netflix.WEB-DLRip-AVC_wolf1245_MediaBit
Encoded date : UTC 2021-03-13 09:22:44
Writing application : mkvmerge v55.0.0 ('Waiting For Space') 64-bit
Writing library : libebml v1.4.2 + libmatroska v1.6.4
Video
ID : 1
Format : AVC
Format/Info : Advanced Video Codec
Format profile : High@L4.1
Format settings : CABAC / 12 Ref Frames
Format settings, CABAC : Yes
Format settings, Reference frames : 12 frames
Codec ID : V_MPEG4/ISO/AVC
Duration : 1 h 29 min
Bit rate : 1 868 kb/s
Width : 1 024 pixels
Height : 512 pixels
Display aspect ratio : 2.000
Frame rate mode : Constant
Frame rate : 24.000 FPS
Color space : YUV
Chroma subsampling : 4:2:0
Bit depth : 8 bits
Scan type : Progressive
Bits/(Pixel*Frame) : 0.148
Stream size : 1.17 GiB (81%)
Title : _wolf1245_MediaBit
Writing library : x264 core 157 r2958 57baac4
Encoding settings : cabac=1 / ref=12 / deblock=1:0:0 / analyse=0x3:0x133 / me=umh / subme=10 / psy=1 / psy_rd=1.00:0.00 / mixed_ref=1 / me_range=32 / chroma_me=1 / trellis=2 / 8x8dct=1 / cqm=0 / deadzone=21,11 / fast_pskip=1 / chroma_qp_offset=-2 / threads=10 / lookahead_threads=2 / sliced_threads=0 / nr=0 / decimate=1 / interlaced=0 / bluray_compat=0 / constrained_intra=0 / bframes=10 / b_pyramid=2 / b_adapt=2 / b_bias=0 / direct=3 / weightb=1 / open_gop=0 / weightp=2 / keyint=240 / keyint_min=24 / scenecut=40 / intra_refresh=0 / rc_lookahead=60 / rc=2pass / mbtree=1 / bitrate=1868 / ratetol=1.0 / qcomp=0.60 / qpmin=0 / qpmax=69 / qpstep=4 / cplxblur=20.0 / qblur=0.5 / vbv_maxrate=50000 / vbv_bufsize=62500 / nal_hrd=none / filler=0 / ip_ratio=1.40 / aq=1:0.80
Language : English
Default : Yes
Forced : No
Audio
ID : 2
Format : AC-3
Format/Info : Audio Coding 3
Commercial name : Dolby Digital
Codec ID : A_AC3
Duration : 1 h 29 min
Bit rate mode : Constant
Bit rate : 448 kb/s
Channel(s) : 6 channels
Channel layout : L R C LFE Ls Rs
Sampling rate : 48.0 kHz
Frame rate : 31.250 FPS (1536 SPF)
Bit depth : 32 bits
Compression mode : Lossy
Stream size : 287 MiB (19%)
Title : DUB | Netflix
Language : Russian
Service kind : Complete Main
Default : Yes
Forced : No
Text #1
ID : 3
Format : UTF-8
Codec ID : S_TEXT/UTF8
Codec ID/Info : UTF-8 Plain Text
Duration : 1 h 25 min
Bit rate : 2 b/s
Count of elements : 40
Stream size : 1.51 KiB (0%)
Title : Forced
Language : Russian
Default : Yes
Forced : No
Text #2
ID : 4
Format : UTF-8
Codec ID : S_TEXT/UTF8
Codec ID/Info : UTF-8 Plain Text
Duration : 1 h 25 min
Bit rate : 116 b/s
Count of elements : 1449
Stream size : 73.1 KiB (0%)
Title : Russian
Language : Russian
Default : No
Forced : No
Text #3
ID : 5
Format : UTF-8
Codec ID : S_TEXT/UTF8
Codec ID/Info : UTF-8 Plain Text
Duration : 43 min 45 s
Bit rate : 0 b/s
Count of elements : 10
Stream size : 276 Bytes (0%)
Title : English [Forced]
Language : English
Default : No
Forced : No
Text #4
ID : 6
Format : UTF-8
Codec ID : S_TEXT/UTF8
Codec ID/Info : UTF-8 Plain Text
Duration : 1 h 21 min
Bit rate : 96 b/s
Count of elements : 1828
Stream size : 57.2 KiB (0%)
Title : English [SDH]
Language : English
Default : No
Forced : No
Релиз от: &
Автор релиза:
pb.wtf



Скачать День «да» через торрент https://i114.fastpic.ru/big/2021/0313/dd/48ca8e8eb3ef2b2097aa74aaded227dd.jpg Скачать, смотреть онлайн День «да» бесплантно в хорошем качестве Описание: Устав постоянно говорить «нет», семейная пара разрешает детям весь день устанавливать свои правила и на все их просьбы отвечать ... 9.4 10 7
Торрент: Зарегистрирован [2021-03-13 09:35] · скачан: 237 раз
Статус: √ проверено
Размер: 1.45 GB
Как cкачать? Как скачать День «да» через торрент | UTorrent

28-11-2019 20:33  

Отключить всю рекламу на сайте

    Дорогой пользователь! Огромная просьба, поблагодарите релизера, оцените раздачу и оставьте свои комментарий, если Вы скачали День «да» через торрент бесплатно!
    Комментировать посты могут только пользователи прошедшие не сложную регистрацию
    Показать сообщения:    

    День «да» через торрент
    Скачать бесплатно День «да»
    День «да» скачать торрент
    День «да» смотреть онлайн
    Cкачать фильм День «да» бесплатно
    День «да» скачать торрент в хорошем качестве
    День «да» смотреть онлайн бесплатно в хорошем качестве


    Вы не можете начинать темы
    Вы не можете отвечать на сообщения
    Вы не можете редактировать свои сообщения
    Вы не можете удалять свои сообщения
    Вы не можете голосовать в опросах
    Вы не можете прикреплять файлы к сообщениям
    Вы можете скачивать файлы