Всегда рабочее зеркало без VPN и Proxy просто перед .vidak.icu напиши любое слово или цифру, Пример http://rv99.vidak.icu

MVO

2 сезон

1 сезон

1

1 сезон

iTunes

2 сезон

13

1 сезон

Deluxe

pack

Рекомендуем

Пиратка

30

ВАЖНО

RePack

MK11

RePack

jed

RePack

fifa19

RePack

RDR2

RePack

NEED FOR SPEED™ PAYBACK

Кинопоиск HD

6 сезон

 Острые козырьки 6 сезон

Все сериалы

все сериалы на PB.wtf

RePack

FAR CRY 5

Anonymous, нам критически не хватает 5601 руб. на оплату серверов и переферии за Апрель, помоги нам пожалуйста, вся надежда только на тебя. В благодарность мы отключим тебе всю рекламу на сайте!

×
  
Magnet ссылка

На расстоянии удара / Striking Distance (Роуди Херрингтон) [1993, боевик, триллер, криминал, детектив, BDRip-HEVC 1080p] DUB + MVO + AVO pb.wtf

На расстоянии удара через торрент pb.wtf

Размер: 5.4 GB | Добавлен: 1 год 2 мес. назад | Торрент скачан:72 раза
Смотреть онлайн На расстоянии удара | Скачать    Ребята, помогите собрать деньги на оплату серверов!!!

14-03-2021 09:24 На расстоянии удара Скачать торрент  

Название: На расстоянии удара
Оригинальное название: Striking Distance
Год производства: 1993
Жанр: боевик, триллер, криминал, детектив
Режиссер: Роуди Херрингтон
В ролях: Брюс Уиллис, Сара Джессика Паркер, Деннис Фарина, Том Сайзмор, Брайон Джеймс, Роберт Пасторелли, Тимоти Басфилд, Джон Махони, Андре Брауэр, Том Аткинс

О фильме: Полицейский Том Харди, переведённый в отряд речной полиции, начинает вести неофициальное расследование по делу серийного убийцы, терроризующего город. Его версия о преступнике отличается от той, которой придерживаются власти и коллеги. Он уверен, что маньяк - работник полиции, и только его напарница поддерживает эту идею. Продолжая поиск убийцы, они не догадываются о том, что тот, кого они разыскивают с таким упорством, сам ищет встречи с ними.



Страна: США
Студия: Columbia Pictures Corporation
Продолжительность: 01:41:44
Перевод: дублированный, профессиональный многоголосый, авторский одноголосый

Качество: BDRip-HEVC 1080p
Кодек: HEVC (x265)
Видео: 1920x1040 (1.85:1), 5778 Кбит/сек, HEVC (Main10@L.4.1@High) 10 бит
Звук:
Аудио1: AC3, 2 ch, 192 Kbps - Русский, Дублированный (R5)
Аудио2: AC3, 2 ch, 192 Kbps - Русский, Многоголосый (R5)
Аудио3: AC3, 6 ch, 640 Kbps - Русский, Авторский (Андрей Гаврилов)
Аудио4: AC3, 6 ch, 640 Kbps - English, Original
Субтитры: Русские полные (SRT), English full (SRT)
Навигация по главам: Есть
x265 [info]: frame I: 616, Avg QP:16.72 kb/s: 17076.36
x265 [info]: frame P: 32451, Avg QP:18.12 kb/s: 12386.49
x265 [info]: frame B: 113284, Avg QP:20.17 kb/s: 4013.98
x265 [info]: Weighted P-Frames: Y:6.9% UV:5.4%
x265 [info]: Weighted B-Frames: Y:4.5% UV:3.4%
x265 [info]: consecutive B-frames: 3.4% 4.2% 5.6% 50.6% 9.6% 24.4% 1.2% 0.9% 0.1% 0.1% 0.1%
x265 [info]: encoded 146351 frames in 206493.38s (0.71 fps), 5925.43 kb/s, Avg QP:19.70
Общее
Уникальный идентификатор : 224336053834367883444422252957253693517 (0xA8C58D6806196B30171CE19DE4C6F04D)
Полное имя : \\.\На.расстоянии.удара.Striking.Distance.1993.BDRip-HEVC.1080p.mkv
Формат : Matroska
Версия формата : Version 4
Размер файла : 5,40 Гбайт
Продолжительность : 1 ч. 41 м.
Общий поток : 7 593 Кбит/сек
Название фильма : На.расстоянии.удара.Striking.Distance.1993.BDRip-HEVC.1080p
Дата кодирования : UTC 2021-03-14 08:58:42
Программа кодирования : mkvmerge v55.0.0 ('Waiting For Space') 64-bit
Библиотека кодирования : libebml v1.4.2 + libmatroska v1.6.4

Видео
Идентификатор : 1
Формат : HEVC
Формат/Информация : High Efficiency Video Coding
Профиль формата : Main 10@L4.1@High
Идентификатор кодека : V_MPEGH/ISO/HEVC
Продолжительность : 1 ч. 41 м.
Битрейт : 5 778 Кбит/сек
Ширина : 1 920 пикселей
Высота : 1 040 пикселей
Соотношение сторон : 1,85:1
Режим частоты кадров : Постоянный
Частота кадров : 23,976 (24000/1001) кадра/сек
Цветовое пространство : YUV
Субдискретизация насыщенности : 4:2:0
Битовая глубина : 10 бит
Бит/(Пиксели*Кадры) : 0.121
Размер потока : 4,11 Гбайт (76%)
Заголовок : Striking Distance / Rip by OldGamer
Библиотека кодирования : x265 3.4+12-g9103319fc:[Windows][GCC 10.2.0][64 bit] 10bit
Настройки программы : cpuid=1111039 / frame-threads=3 / numa-pools=8 / wpp / no-pmode / no-pme / no-psnr / no-ssim / log-level=2 / input-csp=1 / input-res=1920x1040 / interlace=0 / total-frames=146351 / level-idc=41 / high-tier=1 / uhd-bd=0 / ref=5 / no-allow-non-conformance / no-repeat-headers / annexb / no-aud / no-hrd / info / hash=0 / no-temporal-layers / open-gop / min-keyint=23 / keyint=240 / gop-lookahead=0 / bframes=10 / b-adapt=2 / b-pyramid / bframe-bias=0 / rc-lookahead=40 / lookahead-slices=0 / scenecut=40 / hist-scenecut=0 / radl=0 / no-splice / no-intra-refresh / ctu=32 / min-cu-size=8 / rect / amp / max-tu-size=32 / tu-inter-depth=4 / tu-intra-depth=4 / limit-tu=1 / rdoq-level=2 / dynamic-rd=0.00 / no-ssim-rd / signhide / no-tskip / nr-intra=0 / nr-inter=0 / no-constrained-intra / no-strong-intra-smoothing / max-merge=5 / limit-refs=3 / no-limit-modes / me=3 / subme=7 / merange=57 / temporal-mvp / no-frame-dup / no-hme / weightp / weightb / no-analyze-src-pics / deblock=-3:-2 / no-sao / no-sao-non-deblock / rd=6 / selective-sao=0 / no-early-skip / rskip / no-fast-intra / no-tskip-fast / no-cu-lossless / b-intra / no-splitrd-skip / rdpenalty=0 / psy-rd=2.00 / psy-rdoq=1.00 / no-rd-refine / no-lossless / cbqpoffs=0 / crqpoffs=0 / rc=crf / crf=20.0 / qcomp=0.60 / qpstep=4 / stats-write=0 / stats-read=0 / vbv-maxrate=50000 / vbv-bufsize=50000 / vbv-init=0.9 / crf-max=0.0 / crf-min=0.0 / ipratio=1.40 / pbratio=1.30 / aq-mode=1 / aq-strength=1.00 / no-cutree / zone-count=1 / zones: / start-frame=142297 / end-frame=146351 / qp=35 / no-strict-cbr / qg-size=32 / no-rc-grain / qpmax=69 / qpmin=0 / no-const-vbv / sar=1 / overscan=0 / videoformat=5 / range=0 / colorprim=2 / transfer=2 / colormatrix=2 / chromaloc=0 / display-window=0 / cll=0,0 / min-luma=0 / max-luma=1023 / log2-max-poc-lsb=8 / vui-timing-info / vui-hrd-info / slices=1 / no-opt-qp-pps / no-opt-ref-list-length-pps / no-multi-pass-opt-rps / scenecut-bias=0.00 / hist-threshold=0.01 / no-opt-cu-delta-qp / no-aq-motion / no-hdr10 / no-hdr10-opt / no-dhdr10-opt / no-idr-recovery-sei / analysis-reuse-level=0 / analysis-save-reuse-level=0 / analysis-load-reuse-level=0 / scale-factor=0 / refine-intra=0 / refine-inter=0 / refine-mv=1 / refine-ctu-distortion=0 / no-limit-sao / ctu-info=0 / no-lowpass-dct / refine-analysis-type=0 / copy-pic=1 / max-ausize-factor=1.0 / no-dynamic-refine / no-single-sei / no-hevc-aq / no-svt / no-field / qp-adaptation-range=1.00 / no-scenecut-aware-qpconformance-window-offsets / right=0 / bottom=0 / decoder-max-rate=0
Язык : English
Default : Да
Forced : Нет

Аудио #1
Идентификатор : 2
Формат : AC-3
Формат/Информация : Audio Coding 3
Коммерческое название : Dolby Digital
Идентификатор кодека : A_AC3
Продолжительность : 1 ч. 41 м.
Вид битрейта : Постоянный
Битрейт : 192 Кбит/сек
Каналы : 2 канала
Channel layout : L R
Частота : 48,0 КГц
Частота кадров : 31,250 кадров/сек (1536 SPF)
Метод сжатия : С потерями
Размер потока : 140 Мбайт (3%)
Заголовок : DUB (R5)
Язык : Russian
Service kind : Complete Main
Default : Да
Forced : Нет

Аудио #2
Идентификатор : 3
Формат : AC-3
Формат/Информация : Audio Coding 3
Коммерческое название : Dolby Digital
Идентификатор кодека : A_AC3
Продолжительность : 1 ч. 41 м.
Вид битрейта : Постоянный
Битрейт : 192 Кбит/сек
Каналы : 2 канала
Channel layout : L R
Частота : 48,0 КГц
Частота кадров : 31,250 кадров/сек (1536 SPF)
Метод сжатия : С потерями
Размер потока : 140 Мбайт (3%)
Заголовок : MVO (R5)
Язык : Russian
Service kind : Complete Main
Default : Нет
Forced : Нет

Аудио #3
Идентификатор : 4
Формат : AC-3
Формат/Информация : Audio Coding 3
Коммерческое название : Dolby Digital
Идентификатор кодека : A_AC3
Продолжительность : 1 ч. 41 м.
Вид битрейта : Постоянный
Битрейт : 640 Кбит/сек
Каналы : 6 каналов
Channel layout : L R C LFE Ls Rs
Частота : 48,0 КГц
Частота кадров : 31,250 кадров/сек (1536 SPF)
Метод сжатия : С потерями
Размер потока : 466 Мбайт (8%)
Заголовок : AVO (Андрей Гаврилов)
Язык : Russian
Service kind : Complete Main
Default : Нет
Forced : Нет

Аудио #4
Идентификатор : 5
Формат : AC-3
Формат/Информация : Audio Coding 3
Коммерческое название : Dolby Digital
Идентификатор кодека : A_AC3
Продолжительность : 1 ч. 41 м.
Вид битрейта : Постоянный
Битрейт : 640 Кбит/сек
Каналы : 6 каналов
Channel layout : L R C LFE Ls Rs
Частота : 48,0 КГц
Частота кадров : 31,250 кадров/сек (1536 SPF)
Метод сжатия : С потерями
Размер потока : 466 Мбайт (8%)
Язык : English
Service kind : Complete Main
Default : Нет
Forced : Нет

Текст #1
Идентификатор : 6
Формат : UTF-8
Идентификатор кодека : S_TEXT/UTF8
Идентификатор кодека/Информация : UTF-8 Plain Text
Язык : Russian
Default : Нет
Forced : Нет

Текст #2
Идентификатор : 7
Формат : UTF-8
Идентификатор кодека : S_TEXT/UTF8
Идентификатор кодека/Информация : UTF-8 Plain Text
Язык : English
Default : Нет
Forced : Нет

Меню
00:00:00.000 : en:1. Start
00:05:59.942 : en:2. In pursuit
00:12:58.527 : en:3. Courthouse crutches
00:18:49.044 : en:4. Two years later
00:25:05.837 : en:5. Wrong house
00:31:06.781 : en:6. A by-the-book bust
00:37:49.058 : en:7. Little red riding hood
00:43:44.413 : en:8. Diner break
00:46:15.439 : en:9. Another corpse
00:53:48.725 : en:10. Internal affairs
01:00:23.119 : en:11. Undressed cops
01:08:09.335 : en:12. True confessions
01:12:46.945 : en:13. Close surveillance
01:20:55.392 : en:14. Detillo's roost
01:31:17.638 : en:15. Not getting off
01:33:52.084 : en:16. On the bridge


Релиз от: OldGamer pb.wtf



Скачать На расстоянии удара через торрент https://img11.lostpic.net/2021/03/14/69f054f7bfd8c36104b5652570e20a00.jpg Скачать, смотреть онлайн На расстоянии удара бесплантно в хорошем качестве О фильме: Полицейский Том Харди, переведённый в отряд речной полиции, начинает вести неофициальное расследование по делу серийного убийцы, ... 9.8 10 8
Info! Золотая раздача, скачанное не засчитывается.
Торрент: Зарегистрирован [2021-03-14 09:24] · скачан: 72 раз
Статус: √ проверено
Размер: 5.4 GB
Как cкачать? Как скачать На расстоянии удара через торрент | UTorrent

% Раздел Тема Автор DL S | L
Фильмы [HD 720p, 1080p] (Хороший звук DUB, MVO) [ 6.69 GB ] На расстоянии удара / Striking Distance [1993 BDRip 720p от KORSAR] Dub + MVO + DVO + 2x AVO filbi1976 Скачать
1 | 0

28-11-2019 20:33  

Отключить всю рекламу на сайте

14-03-2021 15:05 На расстоянии удара Скачать торрент  

Почему не видел? Может просто забыл. Гляну.pb.wtf



17-03-2021 12:30 На расстоянии удара Скачать торрент  

нормальное кено. не то, что щяз снимают кал.pb.wtf



26-03-2021 13:28 На расстоянии удара Скачать торрент  

БОГАТЫРЬ писал(а):

Почему не видел? Может просто забыл. Гляну.

Просто забыл. И это хорошо, посмотрел с удовольствием!pb.wtf



    Дорогой пользователь! Огромная просьба, поблагодарите релизера, оцените раздачу и оставьте свои комментарий, если Вы скачали На расстоянии удара через торрент бесплатно!
    Комментировать посты могут только пользователи прошедшие не сложную регистрацию
    Показать сообщения:    

    На расстоянии удара через торрент
    Скачать бесплатно На расстоянии удара
    На расстоянии удара скачать торрент
    На расстоянии удара смотреть онлайн
    Cкачать фильм На расстоянии удара бесплатно
    На расстоянии удара скачать торрент в хорошем качестве
    На расстоянии удара смотреть онлайн бесплатно в хорошем качестве


    Вы не можете начинать темы
    Вы не можете отвечать на сообщения
    Вы не можете редактировать свои сообщения
    Вы не можете удалять свои сообщения
    Вы не можете голосовать в опросах
    Вы не можете прикреплять файлы к сообщениям
    Вы можете скачивать файлы