Присоединяйтесь к нам в Telegram!, здесь всегда актуальный адрес сайта, оперативная поддержка и многое другое!!

>

5.9

iTunes

7.4

iTunes

9.4

1 сезон

1

7.4

2 сезон

7.2

iTunes

7.3

1 сезон

13

6.1

iTunes

8.3

GOG

30

ULTIMATE

pack

9.9

Лицензия

ВАЖНО

ИГРА 18+

pack

7.3

RePack

MK11

7.7

RePack

jed

7.8

RePack

fifa19

8.5

RePack

RDR2

RePack

NEED FOR SPEED™ PAYBACK

5 сезон

9 сезон

Бесстыжие 9 сезон

Все сериалы

все сериалы на PB.wtf

RePack

FAR CRY 5

Anonymous, добрый день, мы катастрофически не успеваем собрать деньги на оплату серверов, помогите нам пожалуйста 5,10,15р., для нас важна любая помощь . В качестве благодарности мы отключим Вам всю рекламу на сайте (укажите свой ник в строку Ваше имя)!

×
  
Magnet ссылка

Гениальное ограбление / Way Down (Жауме Балагеро) [2021, боевик, триллер, приключения, BDRip-AVC] [GER Transfer] [DUB] [iTunes] pb.wtf

Гениальное ограбление через торрент pb.wtf

Раздают: 1 [ 0 KB/s ]
Размер: 1.78 GB | Добавлен: 5 мес. 13 д. назад | Торрент скачан:100 раз
Смотреть онлайн Гениальное ограбление | Скачать    Ребята, помогите собрать деньги на оплату серверов!!!

17-03-2021 10:27 Гениальное ограбление Скачать торрент  

Гениальное ограбление / Way Down / The Vault
Год выпуска: 2021
Страна: Испания
Жанр: боевик, триллер, приключения
Продолжительность: 01:58:16
Перевод: Дублированный [iTunes]
Субтитры: английские

Режиссер: Жауме Балагеро / Jaume Balagueró

В ролях: Фамке Янссен, Фредди Хаймор, Астрид Берже-Фрисби, Лиам Каннингэм, Сэм Райли, Луис Тосар, Хосе Коронадо, Эмилио Гутьеррес Каба, Аксель Штайн, Франк Фейс

Описание: Юный гений Том вместе с харизматичным торговцем предметами искусства Уолтером ввязываются в смертельно опасную авантюру. Пока все жители Мадрида отвлечены Чемпионатом мира по футболу, у парней есть всего 90 минут, чтобы ограбить самый защищенный в мире банк, используя единственное оружие – мозг.
rating


Качество видео: BDRip-AVC | GER Transfer
Формат видео: MKV
Видео: 1046x438 at 24.000 fps, x264@L4.1, ~1773 kbps, 0.161 bpp
Аудио: 48 kHz, AC3 Dolby Digital, 5.1 ch, ~ 384 kbps
Формат субтитров: softsub (SRT)

*** Видеоряд без английского хардсаба

***Релиз от: -=DoMiNo=-
x264 [info]: frame I:1734 Avg QP:16.12 size: 50580
x264 [info]: frame P:39043 Avg QP:18.15 size: 19004
x264 [info]: frame B:129527 Avg QP:20.94 size: 5734
x264 [info]: consecutive B-frames: 2.7% 3.1% 9.2% 26.0% 18.2% 31.6% 5.4% 2.2% 0.8% 0.2% 0.1% 0.1% 0.4%

General
Format : Matroska
Format version : Version 4
File size : 1.78 GiB
Duration : 1 h 58 min
Overall bit rate : 2 158 kb/s
Movie name : Гениальное ограбление.(2021).BDRip-AVC.[-=DoMiNo=-]
Encoded date : UTC 2021-06-18 11:13:52
Writing application : mkvmerge v58.0.0 ('Supper's Ready') 64-bit
Writing library : libebml v1.4.2 + libmatroska v1.6.4
Cover : Yes
Attachments : Cover.jpg / Cover 2.jpg

Video
ID : 1
Format : AVC
Format/Info : Advanced Video Codec
Format profile : High@L4.1
Format settings : CABAC / 10 Ref Frames
Format settings, CABAC : Yes
Format settings, Reference : 10 frames
Codec ID : V_MPEG4/ISO/AVC
Duration : 1 h 58 min
Bit rate : 1 773 kb/s
Width : 1 046 pixels
Height : 438 pixels
Display aspect ratio : 2.40:1
Frame rate mode : Constant
Frame rate : 24.000 FPS
Color space : YUV
Chroma subsampling : 4:2:0
Bit depth : 8 bits
Scan type : Progressive
Bits/(Pixel*Frame) : 0.161
Stream size : 1.46 GiB (82%)
Title : -=DoMiNo=-
Writing library : x264 core 164 r3065 ae03d92
Encoding settings : cabac=1 / ref=10 / deblock=1:-2:-2 / analyse=0x3:0x133 / me=umh / subme=11 / psy=1 / psy_rd=1.03:0.05 / mixed_ref=1 / me_range=48 / chroma_me=1 / trellis=2 / 8x8dct=1 / cqm=0 / deadzone=21,11 / fast_pskip=0 / chroma_qp_offset=-3 / threads=14 / lookahead_threads=3 / sliced_threads=0 / nr=0 / decimate=1 / interlaced=0 / bluray_compat=0 / constrained_intra=0 / bframes=12 / b_pyramid=2 / b_adapt=2 / b_bias=0 / direct=1 / weightb=1 / open_gop=0 / weightp=2 / keyint=240 / keyint_min=24 / scenecut=40 / intra_refresh=0 / rc=crf / mbtree=0 / crf=19.0 / qcomp=0.65 / qpmin=0 / qpmax=69 / qpstep=4 / ip_ratio=1.40 / pb_ratio=1.30 / aq=3:0.80
Language : English
Default : Yes
Forced : No
Color range : Limited
Color primaries : BT.709
Transfer characteristics : BT.709
Matrix coefficients : BT.709

Audio
ID : 2
Format : AC-3
Format/Info : Audio Coding 3
Commercial name : Dolby Digital
Codec ID : A_AC3
Duration : 1 h 57 min
Bit rate mode : Constant
Bit rate : 384 kb/s
Channel(s) : 6 channels
Channel layout : L R C LFE Ls Rs
Sampling rate : 48.0 kHz
Frame rate : 31.250 FPS (1536 SPF)
Compression mode : Lossy
Stream size : 324 MiB (18%)
Title : DUB_iTunes
Language : Russian
Service kind : Complete Main
Default : Yes
Forced : Yes

Text #1
ID : 3
Format : UTF-8
Codec ID : S_TEXT/UTF8
Codec ID/Info : UTF-8 Plain Text
Duration : 1 h 48 min
Bit rate : 50 b/s
Count of elements : 1143
Stream size : 40.3 KiB (0%)
Language : English
Default : No
Forced : No

Text #2
ID : 4
Format : UTF-8
Codec ID : S_TEXT/UTF8
Codec ID/Info : UTF-8 Plain Text
Duration : 1 h 50 min
Bit rate : 48 b/s
Count of elements : 1333
Stream size : 38.9 KiB (0%)
Title : SDH
Language : English
Default : No
Forced : No

Menu
00:00:00.000 : Chapter 01
00:06:25.833 : Chapter 02
00:10:45.708 : Chapter 03
00:20:11.667 : Chapter 04
00:32:20.750 : Chapter 05
00:48:36.417 : Chapter 06
00:58:25.000 : Chapter 07
01:11:59.292 : Chapter 08
01:23:51.583 : Chapter 09
01:36:43.083 : Chapter 10
01:43:25.417 : Chapter 11
01:51:20.458 : Chapter 12
скриншот   скриншот   скриншот  
pb.wtf



Скачать Гениальное ограбление через торрент https://a.radikal.ru/a10/2103/51/95c28d151732.jpg Скачать, смотреть онлайн Гениальное ограбление бесплантно в хорошем качестве Описание: Юный гений Том вместе с харизматичным торговцем предметами искусства Уолтером ввязываются в смертельно опасную авантюру. Пока все ... 9.4 10 21
Торрент: Зарегистрирован [2021-06-18 17:34] · скачан: 100 раз
Статус: √ проверено
Размер: 1.78 GB
Как cкачать? Как скачать Гениальное ограбление через торрент | UTorrent

% Раздел Тема Автор DL S | L
Фильмы 2021 [DVDrip, WEB-DLRip, HDrip] (DUB, MVO) [ 2.05 GB ] Гениальное ограбление / Way Down [2021 HDRip-AVC] [GER Transfer | ] от MediaBit Lithuania Скачать
2 | 0
Фильмы [HD 720p, 1080p] (Хороший звук DUB, MVO) [ 8.97 GB ] Гениальное ограбление / Way Down [2021 BDRip 1080p] [GER Transfer] bober100 Скачать
165 | 2
Фильмы 2021 [DVDrip, WEB-DLRip, HDrip] (DUB, MVO) [ 2.13 GB ] Гениальное ограбление / Way Down [2021 BDRip] [GER Transfer] bober100 Скачать
2 | 0
Фильмы 2021 [DVDrip, WEB-DLRip, HDrip] (DUB, MVO) [ 1.46 GB ] Гениальное ограбление / Way Down [2021 BDRip] [GER Transfer] bober100 Скачать
1 | 0
Фильмы (Blu-ray, BD-Remux, HDDVD) [ 28.69 GB ] Гениальное ограбление / Way Down [2021 BD Remux 1080p] [GER Transfer] bober100 Скачать
2 | 0


Последний раз редактировалось: killermax2013 (2021-06-18 17:33), всего редактировалось 1 раз

28-11-2019 20:33  

Отключить всю рекламу на сайте

    Дорогой пользователь! Огромная просьба, поблагодарите релизера, оцените раздачу и оставьте свои комментарий, если Вы скачали Гениальное ограбление через торрент бесплатно!
    Комментировать посты могут только пользователи прошедшие не сложную регистрацию
    Показать сообщения:    

    Гениальное ограбление через торрент
    Скачать бесплатно Гениальное ограбление
    Гениальное ограбление скачать торрент
    Гениальное ограбление смотреть онлайн
    Cкачать фильм Гениальное ограбление бесплатно
    Гениальное ограбление скачать торрент в хорошем качестве
    Гениальное ограбление смотреть онлайн бесплатно в хорошем качестве


    Вы не можете начинать темы
    Вы не можете отвечать на сообщения
    Вы не можете редактировать свои сообщения
    Вы не можете удалять свои сообщения
    Вы не можете голосовать в опросах
    Вы не можете прикреплять файлы к сообщениям
    Вы можете скачивать файлы