Всегда рабочее зеркало без VPN и Proxy просто перед .vidak.icu напиши любое слово или цифру, Пример http://rbhf.vidak.icu

MVO

2 сезон

1 сезон

1

1 сезон

iTunes

2 сезон

13

1 сезон

Deluxe

pack

Рекомендуем

Пиратка

30

ВАЖНО

RePack

MK11

RePack

jed

RePack

fifa19

RePack

RDR2

RePack

NEED FOR SPEED™ PAYBACK

Кинопоиск HD

6 сезон

 Острые козырьки 6 сезон

Все сериалы

все сериалы на PB.wtf

RePack

FAR CRY 5

Anonymous, нам критически не хватает 5601 руб. на оплату серверов и переферии за Апрель, помоги нам пожалуйста, вся надежда только на тебя. В благодарность мы отключим тебе всю рекламу на сайте!

×
  
Magnet ссылка

Зелёная книга / Green Book (Питер Фаррелли) [2018, комедия, драма, биография, BDRip - HEVC 1080p 10 bit 60 FPS ,DUB] pb.wtf

Зелёная книга через торрент pb.wtf

Раздают: 2 [ 0 KB/s ]
Размер: 4.45 GB | Добавлен: 1 год 2 мес. назад | Торрент скачан:63 раза
Смотреть онлайн Зелёная книга | Скачать    Ребята, помогите собрать деньги на оплату серверов!!!

17-03-2021 18:58 Зелёная книга Скачать торрент  

Green Book «Inspired by a True Friendship»

Год выпуска: 2018
Страна: США, Китай
Жанр: комедия, драма, биография

Продолжительность: 02:10:07
Перевод: Дубляж
Субтитры: русские

Режиссер: Питер Фаррелли

В ролях: Вигго Мортенсен, Махершала Али, Линда Карделлини, Себастьян Манискалко, Дон Старк, П.Дж. Бирн, Джозеф Кортезе, Том Вирту, Брайан Степанек, Икбал Теба, Димитар Маринов, Майк Хаттон, Мэгги Никсон, Фон Льюис

Описание:
1960-е годы. После закрытия нью-йоркского ночного клуба на ремонт вышибала Тони по прозвищу Болтун ищет подработку на пару месяцев. Как раз в это время Дон Ширли, утонченный светский лев, богатый и талантливый чернокожий музыкант, исполняющий классическую музыку, собирается в турне по южным штатам, где ещё сильны расистские убеждения и царит сегрегация. Он нанимает Тони в качестве водителя, телохранителя и человека, способного решать текущие проблемы. У этих двоих так мало общего, и эта поездка навсегда изменит жизнь обоих.

Мировая премьера: 11 сентября 2018


Качество: BDRip 1080p by DD2D3
Формат: MKV
Видео кодек: V_MPEGH/ISO/HEVC
Аудио кодек: AC3
Видео: V_MPEGH/ISO/HEVC; 1920x956 (2.008); 4502 Kbps; 59,940 fps; 0,041 bpp
Аудио: русский; AC3; 384 Kbps; CBR; 6 ch
Навигация по главам: есть



General
Unique ID : 210895443843182763606089432154831567259 (0x9EA8FC2BCB3E913FA040950A1FD3B99B)
Complete name : D:\Green Book (2018) BDRip - HEVC 1080p 10 bit 60 FPS.mkv
Format : Matroska
Format version : Version 4
File size : 4.45 GiB
Duration : 2 h 10 min
Overall bit rate : 4 891 kb/s
Movie name : Rip by from DD2D3
Encoded date : UTC 2021-03-17 17:48:55
Writing application : mkvmerge v10.0.0 ('To Drown In You') 32bit
Writing library : libebml v1.3.4 + libmatroska v1.4.5
Attachments : poster

Video
ID : 1
Format : HEVC
Format/Info : High Efficiency Video Coding
Format profile : Main 10@L4.1@Main
Codec ID : V_MPEGH/ISO/HEVC
Duration : 2 h 10 min
Bit rate : 4 503 kb/s
Width : 1 920 pixels
Height : 956 pixels
Display aspect ratio : 2.008
Frame rate mode : Constant
Frame rate : 59.940 (60000/1001) FPS
Color space : YUV
Chroma subsampling : 4:2:0
Bit depth : 10 bits
Bits/(Pixel*Frame) : 0.041
Stream size : 4.09 GiB (92%)
Writing library : x265 2.3+33-0b7d54dbb71a87a0:[Windows][MSVC 1800][64 bit] 10bit: KG7x [x265.ru]
Encoding settings : cpuid=1173503 / frame-threads=2 / numa-pools=4 / wpp / no-pmode / no-pme / no-psnr / no-ssim / log-level=2 / input-csp=1 / input-res=1920x956 / interlace=0 / total-frames=467816 / level-idc=41 / high-tier=1 / uhd-bd=0 / ref=3 / no-allow-non-conformance / no-repeat-headers / annexb / no-aud / no-hrd / info / hash=0 / no-temporal-layers / open-gop / min-keyint=25 / keyint=250 / bframes=4 / b-adapt=2 / b-pyramid / bframe-bias=0 / rc-lookahead=20 / lookahead-slices=6 / scenecut=40 / no-intra-refresh / ctu=64 / min-cu-size=8 / no-rect / no-amp / max-tu-size=32 / tu-inter-depth=1 / tu-intra-depth=1 / limit-tu=0 / rdoq-level=0 / dynamic-rd=0.00 / no-ssim-rd / signhide / no-tskip / nr-intra=0 / nr-inter=0 / no-constrained-intra / strong-intra-smoothing / max-merge=2 / limit-refs=3 / no-limit-modes / me=1 / subme=2 / merange=57 / temporal-mvp / weightp / no-weightb / no-analyze-src-pics / deblock=0:0 / sao / no-sao-non-deblock / rd=3 / no-early-skip / rskip / no-fast-intra / no-tskip-fast / no-cu-lossless / no-b-intra / rdpenalty=0 / psy-rd=2.00 / psy-rdoq=0.00 / no-rd-refine / analysis-mode=0 / no-lossless / cbqpoffs=0 / crqpoffs=0 / rc=abr / bitrate=4500 / qcomp=0.60 / qpstep=4 / stats-write=0 / stats-read=2 / cplxblur=20.0 / qblur=0.5 / ipratio=1.40 / pbratio=1.30 / aq-mode=1 / aq-strength=1.00 / cutree / zone-count=0 / no-strict-cbr / qg-size=32 / no-rc-grain / qpmax=69 / qpmin=0 / sar=1 / overscan=0 / videoformat=5 / range=0 / colorprim=2 / transfer=2 / colormatrix=2 / chromaloc=0 / display-window=0 / max-cll=0,0 / min-luma=0 / max-luma=1023 / log2-max-poc-lsb=8 / vui-timing-info / vui-hrd-info / slices=1 / opt-qp-pps / opt-ref-list-length-pps / no-multi-pass-opt-rps / scenecut-bias=0.05 / no-opt-cu-delta-qp / no-aq-motion / no-hdr / no-hdr-opt / refine-level=5 / no-limit-sao
Default : Yes
Forced : No

Audio
ID : 2
Format : AC-3
Format/Info : Audio Coding 3
Commercial name : Dolby Digital
Codec ID : A_AC3
Duration : 2 h 10 min
Bit rate mode : Constant
Bit rate : 384 kb/s
Channel(s) : 6 channels
Channel layout : L R C LFE Ls Rs
Sampling rate : 48.0 kHz
Frame rate : 31.250 FPS (1536 SPF)
Compression mode : Lossy
Stream size : 357 MiB (8%)
Title : iTunes
Language : Russian
Service kind : Complete Main
Default : Yes
Forced : Yes

Text
ID : 3
Format : UTF-8
Codec ID : S_TEXT/UTF8
Codec ID/Info : UTF-8 Plain Text
Duration : 2 h 0 min
Bit rate : 102 b/s
Count of elements : 1406
Stream size : 90.4 KiB (0%)
Title : Full
Language : Russian
Default : No
Forced : No

Menu
00:00:00.000 : en:00:00:00.000
00:05:43.009 : en:00:05:43.009
00:11:50.043 : en:00:11:50.043
00:18:17.805 : en:00:18:17.805
00:23:46.675 : en:00:23:46.675
00:28:37.382 : en:00:28:37.382
00:34:38.785 : en:00:34:38.785
00:41:13.304 : en:00:41:13.304
00:46:44.593 : en:00:46:44.593
00:54:19.173 : en:00:54:19.173
01:02:42.342 : en:01:02:42.342
01:10:42.655 : en:01:10:42.655
01:16:16.155 : en:01:16:16.155
01:24:30.274 : en:01:24:30.274
01:30:37.724 : en:01:30:37.724
01:36:53.266 : en:01:36:53.266
01:44:56.081 : en:01:44:56.081
01:51:12.124 : en:01:51:12.124
01:54:38.872 : en:01:54:38.872
02:02:25.505 : en:02:02:25.505


скриншот   скриншот   скриншот   скриншот  


pb.wtf



Скачать Зелёная книга через торрент https://funkyimg.com/i/3bA8D.jpg Скачать, смотреть онлайн Зелёная книга бесплантно в хорошем качестве Описание: 1960-е годы. После закрытия нью-йоркского ночного клуба на ремонт вышибала Тони по прозвищу Болтун ищет подработку на пару ... 8.5 10 6
Info! Золотая раздача, скачанное не засчитывается.
Торрент: Зарегистрирован [2021-03-17 18:58] · скачан: 63 раз
Статус: √ проверено
Размер: 4.45 GB
Как cкачать? Как скачать Зелёная книга через торрент | UTorrent

% Раздел Тема Автор DL S | L
Фильмы с авторской озвучкой [ 2.66 GB ] Зелёная книга / Green Book [2018 биография BDRip-AVC] [AVO] killermax2013 Скачать
1 | 0
Фильмы (WEB-DL 720p, 1080p) [ 5.65 GB ] Зеленая книга / Green Book [2018 биография WEB-DL 720p] [AMAZON] MVO [HDRezka Studio] + bober100 Скачать
1 | 0
Фильмы с авторской озвучкой [ 2.01 GB ] Зелёная книга / Green Book [2018 биография WEB-DLRip 1080p] [AVO] killermax2013 Скачать
1 | 0
Фильмы [HD 720p, 1080p] (Хороший звук DUB, MVO) [ 18.27 GB ] Зеленая книга / Green Book [2018 биография BDRip 1080p] MVO [HDRezka Studio] +DUB [] +AVO [Д.Есарев] bober100 Скачать
1 | 0
Ultra HD (UHD: 2K, 4K, 8K) — видео сверхвысокой чёткости [ 42.32 GB ] Зеленая книга / Green Book [2018 биография UHD BDRip 2160p] [SDR] DUB [Blu-ray CEE] + MVO [HDRezka Studio] sheker187 Скачать
1 | 0
Ultra HD (UHD: 2K, 4K, 8K) — видео сверхвысокой чёткости [ 54.23 GB ] Зеленая книга / Green Book [2018 биография UHD BDRemux 2160p] DUB [] + MVO [HDRezka Studio] sheker187 Скачать
1 | 0
Ultra HD (UHD: 2K, 4K, 8K) — видео сверхвысокой чёткости [ 63.36 GB ] Зеленая книга / Green Book [2018 биография UHD Blu-ray 2160p] DUB [] sheker187 Скачать
1 | 0

28-11-2019 20:33  

Отключить всю рекламу на сайте

17-03-2021 20:23 Зелёная книга Скачать торрент  

стрёмный фильм .pb.wtf



17-03-2021 20:38 Зелёная книга Скачать торрент  

в плане?pb.wtf



17-03-2021 23:04 Зелёная книга Скачать торрент  

Большое Спасибо dd2d3! star star star star star
Хороший исторический фильм, один из популярных!
Перепаковал с форсированными субтитрами - просто песня! party


pb.wtf



18-03-2021 13:22 Зелёная книга Скачать торрент  

фильм про гомиков?pb.wtf



18-03-2021 16:40 Зелёная книга Скачать торрент  

Нет, про музыкантаpb.wtf



20-03-2021 05:02 Зелёная книга Скачать торрент  

Интересный фильм. Показывающий лицо Америки.pb.wtf



20-03-2021 22:05 Зелёная книга Скачать торрент  

edapush писал(а):

фильм про гомиков?

Складывается впечатление что многие творческие личности рокетмены, что есть, то есть, именно поэтому не хотел просить dd2d3 делать релизы этих фильмов, нравится история, жизнь людей это важно, сцены слишком малы чтобы сказать что эти фильмы именно о рокетменах. Что же не смотреть картины, не учить историю и т.д ... не знаю... по моему не стоит акцентировать внимание на этом.pb.wtf



    Дорогой пользователь! Огромная просьба, поблагодарите релизера, оцените раздачу и оставьте свои комментарий, если Вы скачали Зелёная книга через торрент бесплатно!
    Комментировать посты могут только пользователи прошедшие не сложную регистрацию
    Показать сообщения:    

    Зелёная книга через торрент
    Скачать бесплатно Зелёная книга
    Зелёная книга скачать торрент
    Зелёная книга смотреть онлайн
    Cкачать фильм Зелёная книга бесплатно
    Зелёная книга скачать торрент в хорошем качестве
    Зелёная книга смотреть онлайн бесплатно в хорошем качестве


    Вы не можете начинать темы
    Вы не можете отвечать на сообщения
    Вы не можете редактировать свои сообщения
    Вы не можете удалять свои сообщения
    Вы не можете голосовать в опросах
    Вы не можете прикреплять файлы к сообщениям
    Вы можете скачивать файлы