Присоединяйтесь к нам в Telegram!, здесь всегда актуальный адрес сайта, оперативная поддержка и многое другое!!

>

5.9

iTunes

7.4

iTunes

9.4

1 сезон

1

7.4

2 сезон

7.2

iTunes

7.3

1 сезон

13

6.1

iTunes

8.3

GOG

30

ULTIMATE

pack

9.9

Лицензия

ВАЖНО

ИГРА 18+

pack

7.3

RePack

MK11

7.7

RePack

jed

7.8

RePack

fifa19

8.5

RePack

RDR2

RePack

NEED FOR SPEED™ PAYBACK

5 сезон

9 сезон

Бесстыжие 9 сезон

Все сериалы

все сериалы на PB.wtf

RePack

FAR CRY 5

Anonymous, доброй ночи, мы катастрофически не успеваем собрать деньги на оплату серверов, помогите нам пожалуйста 5,10,15р., для нас важна любая помощь . В качестве благодарности мы отключим Вам всю рекламу на сайте (укажите свой ник в строку Ваше имя)!

×
  
Magnet ссылка

Цикада 3301: Квест для хакера / Dark Web: Cicada 3301 (Алан Ричсон) [2021, Боевик, триллер, комедия, HDRip-AVC] DUB [iTunes] от MediaBit pb.wtf

Цикада 3301: Квест для хакера через торрент pb.wtf

Размер: 748 MB | Добавлен: 8 мес. назад | Торрент скачан:103 раза
Смотреть онлайн Цикада 3301: Квест для хакера | Скачать    Ребята, помогите собрать деньги на оплату серверов!!!

20-03-2021 14:52 Цикада 3301: Квест для хакера Скачать торрент  


Цикада 3301: Квест для хакера / Dark Web: Cicada 3301
Информация о фильме:
Название: Цикада 3301: Квест для хакера
Оригинальное название: Dark Web: Cicada 3301
Год выхода: 2021
Жанр: Боевик, триллер, комедия
Режиссер: Алан Ричсон

В ролях: Алан Ричсон, Кристен Холден-Рид, Конор Лесли, Джесс Салгейру, Джек Кеси, Рон Фанчес, Ава Блэкуэлл, Хеннеки Талбот, Андреас Апергис, Бенжамин Сазерленд

Описание: Этот квест «взорвал» даркнет в 2012 году. Пройти его могут лишь избранные — те, кто разгадают загадки, разбросанные по всему миру. Цель теста — найти людей с поистине высоким интеллектом. Авторы — анонимы под ником Цикада 3301 — могут быть кем угодно: от кибер-гиков до представителей спецслужб. Что ждет игроков в финале? Гениальный хакер Коннор и его друзья пускаются по цифровому следу Цикады в поисках ответов, но агенты АНБ намерены опередить их.

rating

Страна: США
Студия: AllyCat Entertainment
Продолжительность: 01:45:22
Перевод: Дублированный - iTunes



Информация о файле:
Кодек: AVC
Формат: MKV
Качество: HDRip-AVC
Видео: MPEG-4 AVC, 744x372, 23.976 fps, 914 kbps
Аудио RU: AAC-HE, 2 ch, 48 kHz, 76 kbps
Субтитры: Русские (Full), английские
Навигация по главам: Да

x264 info: frame I:1342 Avg QP:14.94 size: 41827
x264 info: frame P:33653 Avg QP:18.32 size: 11141
x264 info: frame B:116589 Avg QP:22.48 size: 2498
x264 info: consecutive B-frames: 2.2% 2.5% 10.2% 22.1% 18.3% 34.9% 5.0% 1.5% 1.5% 1.1% 0.2% 0.2% 0.4%
*********************************
General
Unique ID : 125242901036097923680036617949833501213 (0x5E38E7C48A9DB477FA78AFC501BA9A1D)
Complete name : D:uTorrentРипы_от_wolf1245_MediaBitDark.Web.Cicada.3301.2021.DUB.HDRip-AVC_wolf1245_MediaBit.mkv
Format : Matroska
Format version : Version 4
File size : 748 MiB
Duration : 1 h 45 min
Overall bit rate : 992 kb/s
Movie name : Dark.Web.Cicada.3301.2021.DUB.HDRip-AVC_wolf1245_MediaBit
Encoded date : UTC 2021-03-20 14:40:41
Writing application : mkvmerge v55.0.0 ('Waiting For Space') 64-bit
Writing library : libebml v1.4.2 + libmatroska v1.6.4
Video
ID : 1
Format : AVC
Format/Info : Advanced Video Codec
Format profile : High@L4.1
Format settings : CABAC / 12 Ref Frames
Format settings, CABAC : Yes
Format settings, Reference frames : 12 frames
Codec ID : V_MPEG4/ISO/AVC
Duration : 1 h 45 min
Bit rate : 914 kb/s
Width : 744 pixels
Height : 372 pixels
Display aspect ratio : 2.000
Frame rate mode : Constant
Frame rate : 23.976 (24000/1001) FPS
Color space : YUV
Chroma subsampling : 4:2:0
Bit depth : 8 bits
Scan type : Progressive
Bits/(Pixel*Frame) : 0.138
Stream size : 689 MiB (92%)
Title : _wolf1245_MediaBit
Writing library : x264 core 157 r2958 57baac4
Encoding settings : cabac=1 / ref=12 / deblock=1:-3:-3 / analyse=0x3:0x133 / me=umh / subme=11 / psy=1 / psy_rd=1.00:0.05 / mixed_ref=1 / me_range=48 / chroma_me=1 / trellis=2 / 8x8dct=1 / cqm=0 / deadzone=21,11 / fast_pskip=1 / chroma_qp_offset=-3 / threads=10 / lookahead_threads=2 / sliced_threads=0 / nr=0 / decimate=1 / interlaced=0 / bluray_compat=0 / constrained_intra=0 / bframes=12 / b_pyramid=2 / b_adapt=2 / b_bias=0 / direct=3 / weightb=1 / open_gop=0 / weightp=2 / keyint=240 / keyint_min=24 / scenecut=40 / intra_refresh=0 / rc_lookahead=60 / rc=2pass / mbtree=1 / bitrate=914 / ratetol=1.0 / qcomp=0.60 / qpmin=0 / qpmax=69 / qpstep=4 / cplxblur=20.0 / qblur=0.5 / vbv_maxrate=50000 / vbv_bufsize=62500 / nal_hrd=none / filler=0 / ip_ratio=1.40 / aq=1:0.80
Language : English
Default : Yes
Forced : No
Color range : Limited
Color primaries : BT.709
Transfer characteristics : BT.709
Matrix coefficients : BT.709
Audio
ID : 2
Format : AAC LC SBR
Format/Info : Advanced Audio Codec Low Complexity with Spectral Band Replication
Commercial name : HE-AAC
Format settings : Implicit
Codec ID : A_AAC-2
Duration : 1 h 45 min
Bit rate : 76.0 kb/s
Channel(s) : 2 channels
Channel layout : L R
Sampling rate : 48.0 kHz
Frame rate : 23.438 FPS (2048 SPF)
Compression mode : Lossy
Stream size : 57.3 MiB (8%)
Title : DUB | iTunes
Language : Russian
Default : Yes
Forced : No
Text #1
ID : 3
Format : UTF-8
Codec ID : S_TEXT/UTF8
Codec ID/Info : UTF-8 Plain Text
Duration : 1 h 38 min
Bit rate : 112 b/s
Count of elements : 1908
Stream size : 81.2 KiB (0%)
Title : Full
Language : Russian
Default : No
Forced : No
Text #2
ID : 4
Format : UTF-8
Codec ID : S_TEXT/UTF8
Codec ID/Info : UTF-8 Plain Text
Duration : 1 h 38 min
Bit rate : 74 b/s
Count of elements : 1495
Stream size : 53.8 KiB (0%)
Title : Full
Language : English
Default : No
Forced : No
Text #3
ID : 5
Format : UTF-8
Codec ID : S_TEXT/UTF8
Codec ID/Info : UTF-8 Plain Text
Duration : 1 h 38 min
Bit rate : 81 b/s
Count of elements : 1679
Stream size : 58.8 KiB (0%)
Title : SDH
Language : English
Default : No
Forced : No
Menu
00:00:00.000 : :Chapter 01
00:05:56.314 : :Chapter 02
00:09:27.233 : :Chapter 03
00:17:24.710 : :Chapter 04
00:22:50.327 : :Chapter 05
00:29:02.699 : :Chapter 06
00:34:53.341 : :Chapter 07
00:43:45.581 : :Chapter 08
00:51:43.183 : :Chapter 09
00:56:49.656 : :Chapter 10
01:03:28.596 : :Chapter 11
01:09:21.532 : :Chapter 12
01:16:17.031 : :Chapter 13
01:21:32.805 : :Chapter 14
01:30:55.533 : :Chapter 15
01:35:03.823 : :Chapter 16
Релиз от: &
Автор релиза:
pb.wtf



Скачать Цикада 3301: Квест для хакера через торрент https://i114.fastpic.ru/big/2021/0320/cb/2f283273b2e2b93e32a07eb12a83d5cb.jpg Скачать, смотреть онлайн Цикада 3301: Квест для хакера бесплантно в хорошем качестве Описание: Этот квест «взорвал» даркнет в 2012 году. Пройти его могут лишь избранные — те, кто разгадают загадки, разбросанные по всему ... 10 10 2
Торрент: Зарегистрирован [2021-03-20 14:52] · скачан: 103 раз
Статус: √ проверено
Размер: 748 MB
Как cкачать? Как скачать Цикада 3301: Квест для хакера через торрент | UTorrent

28-11-2019 20:33  

Отключить всю рекламу на сайте

    Дорогой пользователь! Огромная просьба, поблагодарите релизера, оцените раздачу и оставьте свои комментарий, если Вы скачали Цикада 3301: Квест для хакера через торрент бесплатно!
    Комментировать посты могут только пользователи прошедшие не сложную регистрацию
    Показать сообщения:    

    Цикада 3301: Квест для хакера через торрент
    Скачать бесплатно Цикада 3301: Квест для хакера
    Цикада 3301: Квест для хакера скачать торрент
    Цикада 3301: Квест для хакера смотреть онлайн
    Cкачать фильм Цикада 3301: Квест для хакера бесплатно
    Цикада 3301: Квест для хакера скачать торрент в хорошем качестве
    Цикада 3301: Квест для хакера смотреть онлайн бесплатно в хорошем качестве


    Вы не можете начинать темы
    Вы не можете отвечать на сообщения
    Вы не можете редактировать свои сообщения
    Вы не можете удалять свои сообщения
    Вы не можете голосовать в опросах
    Вы не можете прикреплять файлы к сообщениям
    Вы можете скачивать файлы