Достать ножи: Стеклянная луковица

MVO

Добыча

Дубляж

Уэнсдэй

1 сезон

Тор

Дубляж

13 клиническая

1 сезон

Жестокая ночь

MVO

Одни из нас

1 сезон

Deluxe

pack

Рекомендуем

30

Пиратка

ВАЖНО

ВАЖНО

Ghostwire

Пиратка

jed

RePack

nioh2

RePack

RDR2

RePack

NEED FOR SPEED™ PAYBACK

RePack

скачать торрент

Кинопоиск HD

Острые козырьки 6 сезон

6 сезон

FAR CRY 6

RePack

скачать торрент

Лицензия

скачать торрент

MVO

1

1 сезон

скачать торрент

1 сезон

скачать торрент

Лицензия

  

Доверие / The Trust (Брайан ДеКьюбелис) [2021 г., мелодрама, драма, детектив, WEB-DLRip-AVC] MVO [AlphaProject] от MediaBit

Доверие через торрент pb.wtf

Размер: 2.04 GB | Добавлен: 1 год 10 мес. назад | Торрент скачан:106 раз
Смотреть онлайн | Скачать | Поддержите нас   

21-03-2021 07:39 Доверие Скачать торрент  


Доверие / Trust
Название: Доверие
Оригинальное название: Trust
Год выхода: 2021
Жанр: мелодрама, драма, детектив
Режиссер: Брайан ДеКьюбелис
В ролях: Мэттью Даддарио (Оуэн), Виктория Джастис (Брук), Кэтрин МакНамара (Эми), Люсьен Лависконт (Ансгар), Линдси Броад (Элеанор), Ронни Чиэн (Адам)

Описание: В этой сексуальной, закрученной, детективной истории владелица нью-йоркской галереи Брук и ее муж, тележурналист Оуэн, каждый по отдельности сталкиваются с исключительными искушениями с самыми неожиданными результатами.



Страна: США
Студия: DeCubellis Films, Untravelled Worlds
Продолжительность: 01:34:19
Перевод: Любительский (многоголосый, закадровый) - AlphaProject



Информация о файле:
Кодек: AVC
Формат: MKV
Качество: WEB-DLRip-AVC
Видео: MPEG-4 AVC, 1024x552, 23,976 fps, 2213kbps
Аудио RU: AC3, 6 ch, 48 kHz, 448 kbps
Аудио EN: AC3, 6 ch, 48 kHz, 448 kbps
Субтитры: Русские Форсированные (Ash61) (включены по умолчанию), English Full, English SDH
Навигация по главам: Нет

семпл
x264 info: frame I:1162 Avg QP:11.28 size: 99791
x264 info: frame P:29326 Avg QP:14.64 size: 27285
x264 info: frame B:105201 Avg QP:17.88 size: 6104
x264 info: consecutive B-frames: 1.8% 1.8% 6.2% 31.5% 17.4% 28.1% 4.8% 5.4% 0.9% 0.7% 1.3%
********************************
General
Unique ID : 233811073212691881639591891016050903775 (0xAFE65FEDD81B456042C2400427B18ADF)
Complete name : D:uTorrentРипы_от_wolf1245_MediaBitTrust.2021.MVO.AlphaProject.WEB-DLRip-AVC_wolf1245_MediaBit.mkv
Format : Matroska
Format version : Version 4
File size : 2.04 GiB
Duration : 1 h 34 min
Overall bit rate : 3 101 kb/s
Movie name : Trust.2021.MVO.AlphaProject.WEB-DLRip-AVC_wolf1245_MediaBit
Encoded date : UTC 2021-03-21 07:23:11
Writing application : mkvmerge v55.0.0 ('Waiting For Space') 64-bit
Writing library : libebml v1.4.2 + libmatroska v1.6.4
Video
ID : 1
Format : AVC
Format/Info : Advanced Video Codec
Format profile : [email protected]
Format settings : CABAC / 12 Ref Frames
Format settings, CABAC : Yes
Format settings, Reference frames : 12 frames
Codec ID : V_MPEG4/ISO/AVC
Duration : 1 h 34 min
Bit rate : 2 213 kb/s
Width : 1 024 pixels
Height : 552 pixels
Display aspect ratio : 1.85:1
Frame rate mode : Constant
Frame rate : 23.976 (24000/1001) FPS
Color space : YUV
Chroma subsampling : 4:2:0
Bit depth : 8 bits
Scan type : Progressive
Bits/(Pixel*Frame) : 0.163
Stream size : 1.45 GiB (71%)
Title : _wolf1245_MediaBit
Writing library : x264 core 157 r2958 57baac4
Encoding settings : cabac=1 / ref=12 / deblock=1:0:0 / analyse=0x3:0x133 / me=umh / subme=10 / psy=1 / psy_rd=1.00:0.00 / mixed_ref=1 / me_range=32 / chroma_me=1 / trellis=2 / 8x8dct=1 / cqm=0 / deadzone=21,11 / fast_pskip=1 / chroma_qp_offset=-2 / threads=10 / lookahead_threads=2 / sliced_threads=0 / nr=0 / decimate=1 / interlaced=0 / bluray_compat=0 / constrained_intra=0 / bframes=10 / b_pyramid=2 / b_adapt=2 / b_bias=0 / direct=3 / weightb=1 / open_gop=0 / weightp=2 / keyint=240 / keyint_min=24 / scenecut=40 / intra_refresh=0 / rc_lookahead=60 / rc=2pass / mbtree=1 / bitrate=2213 / ratetol=1.0 / qcomp=0.60 / qpmin=0 / qpmax=69 / qpstep=4 / cplxblur=20.0 / qblur=0.5 / vbv_maxrate=50000 / vbv_bufsize=62500 / nal_hrd=none / filler=0 / ip_ratio=1.40 / aq=1:0.80
Language : English
Default : Yes
Forced : No
Color range : Limited
Color primaries : BT.709
Transfer characteristics : BT.709
Matrix coefficients : BT.709
Audio #1
ID : 2
Format : AC-3
Format/Info : Audio Coding 3
Commercial name : Dolby Digital
Codec ID : A_AC3
Duration : 1 h 34 min
Bit rate mode : Constant
Bit rate : 448 kb/s
Channel(s) : 6 channels
Channel layout : L R C LFE Ls Rs
Sampling rate : 48.0 kHz
Frame rate : 31.250 FPS (1536 SPF)
Bit depth : 32 bits
Compression mode : Lossy
Stream size : 302 MiB (14%)
Title : MVO | AlphaProject
Language : Russian
Service kind : Complete Main
Default : Yes
Forced : No
Audio #2
ID : 3
Format : AC-3
Format/Info : Audio Coding 3
Commercial name : Dolby Digital
Codec ID : A_AC3
Duration : 1 h 34 min
Bit rate mode : Constant
Bit rate : 448 kb/s
Channel(s) : 6 channels
Channel layout : L R C LFE Ls Rs
Sampling rate : 48.0 kHz
Frame rate : 31.250 FPS (1536 SPF)
Bit depth : 32 bits
Compression mode : Lossy
Stream size : 302 MiB (14%)
Title : Original
Language : English
Service kind : Complete Main
Default : No
Forced : No
Text #1
ID : 4
Format : UTF-8
Codec ID : S_TEXT/UTF8
Codec ID/Info : UTF-8 Plain Text
Duration : 1 h 22 min
Bit rate : 0 b/s
Count of elements : 15
Stream size : 562 Bytes (0%)
Title : Форсированные
Language : Russian
Default : Yes
Forced : No
Text #2
ID : 5
Format : UTF-8
Codec ID : S_TEXT/UTF8
Codec ID/Info : UTF-8 Plain Text
Duration : 1 h 30 min
Bit rate : 63 b/s
Count of elements : 1413
Stream size : 42.1 KiB (0%)
Title : Full
Language : English
Default : No
Forced : No
Text #3
ID : 6
Format : UTF-8
Codec ID : S_TEXT/UTF8
Codec ID/Info : UTF-8 Plain Text
Duration : 1 h 31 min
Bit rate : 66 b/s
Count of elements : 1507
Stream size : 44.6 KiB (0%)
Title : SDH
Language : English
Default : No
Forced : No
Релиз от: amp; MediaBit




Скачать Доверие через торрент https://i114.fastpic.ru/big/2021/0321/0d/ad9c424509f72cebb40ed6f89e09910d.jpg Скачать, смотреть онлайн Доверие бесплантно в хорошем качестве Описание: В этой сексуальной, закрученной, детективной истории владелица нью-йоркской галереи Брук и ее муж, тележурналист Оуэн, каждый ... 10 10 2
Торрент: Зарегистрирован [2021-03-21 07:39] · скачан: 106 раз
Статус: T временная
Размер: 2.04 GB
Как cкачать? Как скачать Доверие через торрент | UTorrent

28-11-2019 20:33  


Отключить вcю реклaмy на сайте, в т.ч. и в плеере онлайн просмотра!

15-04-2021 19:23 Доверие Скачать торрент  

бляха и здесь нигеры



    Дорогой пользователь! Огромная просьба, поблагодарите релизера, оцените раздачу и оставьте свои комментарий, если Вы скачали Доверие через торрент бесплатно!!
    Комментировать посты могут только пользователи прошедшие не сложную регистрацию
    Показать сообщения:    


    Доверие через торрент
    Скачать бесплатно Доверие
    Доверие скачать торрент
    Доверие смотреть онлайн
    Cкачать фильм Доверие бесплатно
    Доверие скачать торрент в хорошем качестве
    Доверие смотреть онлайн бесплатно в хорошем качестве
    Вы не можете начинать темы
    Вы не можете отвечать на сообщения
    Вы не можете редактировать свои сообщения
    Вы не можете удалять свои сообщения
    Вы не можете голосовать в опросах
    Вы не можете прикреплять файлы к сообщениям
    Вы можете скачивать файлы
    Доверие / The Trust [2021 г., мелодрама, драма, детектив, WEB-DLRip-AVC] MVO [AlphaProject] от MediaBit смотреть онлайн, скачать торрент picoco.icu