1 сезон

1 сезон

iTunes

1

КиноПоиск HD

Кинопоиск HD

iTunes

13

1 сезон

RePack

30

Новинка

ВАЖНО

ИГРА 18+

pack

RePack

MK11
pack

Легкие деньги

RePack

jed

RePack

fifa19

RePack

RDR2

RePack

NEED FOR SPEED™ PAYBACK

4 сезон

9 сезон

Бесстыжие 9 сезон

Все сериалы

все сериалы на PB.wtf

RePack

FAR CRY 5
  
Magnet ссылка

Что? Где? Когда? Весенняя серия игр (1 игра из 5) (Продюсерский центр "ИГРА-ТВ") [2021 г., интеллектуальное шоу, HDTVRip, Оригинальный] pb.wtf

Что? Где? Когда? Весенняя серия игр через торрент pb.wtf

Раздают: 1 [ 0 KB/s ]
Размер: 694 MB | Добавлен: 21 д. назад | Торрент скачан:8 раз
Скачать  

22-03-2021 09:10 Что? Где? Когда? Весенняя серия игр Скачать торрент  

Что? Где? Когда? Весенняя серия игр (1 игра из 5)
Год выпуска: 2021
Страна: Россия
Жанр: интеллектуальное шоу
Продолжительность: 1 х ~ 01:00:00
Перевод: Оригинальный
Субтитры: нет

Режиссер: Продюсерский центр "ИГРА-ТВ"

Описание: Интеллектуальная викторина, наиболее распространённая в русскоязычной среде. Была создана в 1975 г. телеведущим Владимиром Ворошиловым. Игра очень быстро стала настолько популярной, что кроме оригинальной телевизионной версии появилась спортивная версия игры. Сущность игры заключается в противостоянии команды Знатоков (игровой команды из шести человек) команде Телезрителей. Знатоки должны за одну минуту при помощи мозгового штурма найти ответ на вопрос, присланный телезрителем. Как правило, игрокам задаются вопросы, ответить на которые можно с помощью общих знани

Качество: HDTVRip
Формат: AVI
Видео кодек: XviD
Аудио кодек: MP3
Видео: MPEG-4 ,Xvid (720x400), 1500 Кбит/с, 25.000 кадра/сек
Аудио#1: MP3, 2 ch, 128 kbps (Rus) 48.0 KHz Оригинал
скриншот   скриншот   скриншот  

Имя файла: Chto.Gde.Kogda.Vesennyaya.Seriya.Igr.01.vypusk.HDTVRip.avi
Формат файла: .avi (AVI)
Размер файла: 693,55 MB (727 240 630 bytes)
Длительность: 59 min 6 s
Навигация по главам: Нет
Битрейт (все потоки): 1 640 kb/s
Создан при помощи: Lavf58.45.100
Обложка: Отсутствует
:
Название: Chto.Gde.Kogda.Vesennyaya.Seriya.Igr.01.vypusk.HDTVRip
:
Тип потока: Видео
Длительность: 00:59:06
Кодек: MPEG-4 Visual
Кодек/профиль: Advanced Simple@L5
Кодек/ID: XVID
Размеры изображения: 720 x 400 (16:9)
Частота кадров: 25.000 FPS
Размер потока: 634 MiB (91%)
Битрейт: 1 499 kb/s
Метод сжатия: Lossy
Библиотека кодирования: XviD 69
Цветовое пространство: YUV
Тип развёртки: Progressive
Колориметрия: 4:2:0
Глубина: 8 bits
:
Тип потока: Звук #1
Длительность: 00:59:06.720
Кодек: MPEG Audio
Кодек/профиль: Layer 3
Кодек/ID: 55
Частота дискретизации: 48.0 kHz
Каналов: 2 channels
Битрейт: 128 kb/s
Битрейт/тип: Constant
Размер потока: 54.1 MiB (8%)
Метод сжатия: Lossy

Раздача ведётся путём добавления новых серий, при каждом добавлении создаётся новый торрент. Чтобы начать докачку новой серии, пользователям необходимо сделать следующее:

- Остановить скачивание.
- Удалить старый торрент у себя из клиента (старые серии удалять не надо).
- Скачать новый торрент и запустить его у себя в клиенте вместо старого, при этом указать клиенту путь в старую папку куда и должно происходить скачивание новых серий.

Ваш клиент при этом должен произвести хеширование (проверку) старой папки (если не производит сам - помогите ему сделать это), и будет докачивать только те серии которых у вас ещё нет. Старые серии при этом не удаляются, а продолжают раздаваться!
Если вы уже удалили старые серии, то предотвратить повторную закачку старых серий можно, отжав галочку в соответствующих местах при запуске нового торрента. По возможности, желательно не удалять старые серии как можно дольше, чтобы релизер не столько продолжал раздавать старые серии, а смог сконцентрироваться на новых.
ДОБАВЛЕНА 01 ИГРА ПЕРЕЗАЛЕЙТЕ ТОРРЕНТ ФАИЛpb.wtf



Скачать Что? Где? Когда? Весенняя серия игр через торрент https://pic1.kartinco.top/new/img/2021-03/22/c01vz4wrqsxc50f3cidl9smg7.jpg Скачать фильм Что? Где? Когда? Весенняя серия игр через торрент бесплантно в хорошем качестве Описание: Интеллектуальная викторина, наиболее распространённая в русскоязычной среде. Была создана в 1975 г. телеведущим Владимиром ... 9.5 10 2
Торрент: Зарегистрирован [2021-03-22 09:10] · скачан: 8 раз
Статус: √ проверено
Размер: 694 MB
Как cкачать? Как скачать Что? Где? Когда? Весенняя серия игр через торрент | UTorrent

28-11-2019 20:33  

Отключить всю рекламу на сайте

22-03-2021 12:32 Что? Где? Когда? Весенняя серия игр Скачать торрент  

ура дождались..спасибо за раздачу..Хорошие игрыpb.wtf



22-03-2021 13:21 Что? Где? Когда? Весенняя серия игр Скачать торрент  

tortona7 писал(а):

ура дождались..спасибо за раздачу..Хорошие игры

pb.wtf



    Дорогой пользователь! Огромная просьба, поблагодарите релизера, оцените раздачу и оставьте свои комментарий, если Вы скачали Что? Где? Когда? Весенняя серия игр через торрент бесплатно! Внесите свою лепту в развитие PiratBit!
    Комментировать посты могут только пользователи прошедшие не сложную регистрацию
    Показать сообщения:    

    Что? Где? Когда? Весенняя серия игр через торрент
    Скачать бесплатно Что? Где? Когда? Весенняя серия игр
    Что? Где? Когда? Весенняя серия игр скачать торрент
    Что? Где? Когда? Весенняя серия игр смотреть онлайн
    Cкачать фильм Что? Где? Когда? Весенняя серия игр бесплатно
    Что? Где? Когда? Весенняя серия игр скачать торрент в хорошем качестве
    Что? Где? Когда? Весенняя серия игр смотреть онлайн бесплатно в хорошем качестве


    Вы не можете начинать темы
    Вы не можете отвечать на сообщения
    Вы не можете редактировать свои сообщения
    Вы не можете удалять свои сообщения
    Вы не можете голосовать в опросах
    Вы не можете прикреплять файлы к сообщениям
    Вы можете скачивать файлы