Лицензия

MVO

1

1 сезон

Лицензия

Лицензия

13

MVO

1 сезон

Deluxe Edition

pack

Рекомендуем

30

Repack

ВАЖНО

ВАЖНО

Ghostwire

RePack

jed

RePack

fifa19

RePack

RDR2

RePack

NEED FOR SPEED™ PAYBACK

RePack

Кинопоиск HD

 Острые козырьки 6 сезон

6 сезон

FAR CRY 6

RePack

Лицензия

MVO

1

1 сезон

1 сезон

Лицензия

  

Приворот. Черное венчание (Святослав Подгаевский) [2021, Ужасы, триллер, мелодрама, WEBRip 1080p]

Приворот. Черное венчание через торрент pb.wtf

Раздают: 1 [ 0 KB/s ]
Размер: 2.83 GB | Добавлен: 1 год 6 мес. назад | Торрент скачан:259 раз
Смотреть онлайн Приворот. Черное венчание | Скачать   

23-03-2021 19:34 Приворот. Черное венчание Скачать торрент  

Приворот. Черное венчание
Год выпуска: 2021
Страна: Россия
Студия: Централ Партнершип, Iney Productions, QS Films
Жанр: Ужасы, триллер, мелодрама
Продолжительность: 01:28:55
Перевод: Не требуется
Субтитры: отсутствуют

Режиссер: Святослав Подгаевский



В ролях: Яна Енжаева, Константин Белошапка, Илья Ермолов, Варвара Бородина, Игорь Хрипунов, Сабина Ахмедова, Кристина Маранды, Лариса Домаскина, Даниэла Богатырева, Никита Юранов

Описание: Женю бросает мужчина, которого она любит больше жизни. Не в силах смириться девушка решается на отчаянный шаг: цыганка помогает ей провести ритуал черного венчания и сделать самый сильный приворот на любовь. И Кирилл возвращается! Им еще никогда не было так хорошо вместе, влюбленные не могут оторваться друг от друга. Но с каждым днем страсть Кирилла все больше походит на пугающую одержимость - он контролирует каждый шаг девушки и не готов ни с кем ее делить: «Ты только моя, а я твой». На что Жене придется пойти, чтобы отменить черное венчание и спасти любимого от необратимого превращения в чудовище? Ведь пока приворот действует, даже смерть не разлучит их.

Качество: WEBRip 1080p
Формат: MKV

Видео: MPEG-4 AVC, 4370 Кбит/с, 1920x800
Аудио: 48.0 kHz, AC3 Dolby Digital, 2/0 (L,R) ch, ~ 192 kbps
скриншот  скриншот  скриншот  скриншот  

Complete name : Privorot.Chernoe.venchanie.2020.WEB-DL.1080p.ELEKTRI4KA.UNIONGANG.mkv
Format : Matroska
Format version : Version 4
File size : 2.83 GiB
Duration : 1 h 28 min
Overall bit rate mode : Variable
Overall bit rate : 4 564 kb/s
Movie name : Privorot.Chernoe.venchanie.2020.WEB-DL.1080p.ELEKTRI4KA.UNIONGANG.
Encoded date : UTC 2021-03-17 22:46:08
Writing application : mkvmerge v8.3.0 ('Over the Horizon') 64bit
Writing library : libebml v1.3.1 + libmatroska v1.4.2

Video
ID : 1
Format : AVC
Format/Info : Advanced Video Codec
Format profile : [email protected]
Format settings : CABAC / 1 Ref Frames
Format settings, CABAC : Yes
Format settings, Reference frames : 1 frame
Format settings, GOP : M=1, N=50
Codec ID : V_MPEG4/ISO/AVC
Duration : 1 h 28 min
Bit rate mode : Variable
Bit rate : 4 370 kb/s
Maximum bit rate : 4 500 kb/s
Width : 1 920 pixels
Height : 800 pixels
Display aspect ratio : 2.40:1
Frame rate mode : Constant
Frame rate : 25.000 FPS
Color space : YUV
Chroma subsampling : 4:2:0
Bit depth : 8 bits
Scan type : Progressive
Bits/(Pixel*Frame) : 0.114
Stream size : 2.71 GiB (96%)
Default : Yes
Forced : No

Audio
ID : 2
Format : AC-3
Format/Info : Audio Coding 3
Commercial name : Dolby Digital
Codec ID : A_AC3
Duration : 1 h 28 min
Bit rate mode : Constant
Bit rate : 192 kb/s
Channel(s) : 2 channels
Channel layout : L R
Sampling rate : 44.1 kHz
Frame rate : 28.711 FPS (1536 SPF)
Compression mode : Lossy
Stream size : 122 MiB (4%)
Title : Original
Language : Russian
Service kind : Complete Main
Default : Yes
Forced : No




Скачать Приворот. Черное венчание через торрент https://i114.fastpic.ru/big/2021/0318/e2/3629950bfc8e1e55bb5c7ba6372966e2.jpg Скачать, смотреть онлайн Приворот. Черное венчание бесплантно в хорошем качестве Описание: Женю бросает мужчина, которого она любит больше жизни. Не в силах смириться девушка решается на отчаянный шаг: цыганка помогает ... 9.7 10 9
Торрент: Зарегистрирован [2021-03-23 19:34] · скачан: 259 раз
Статус: T временная
Размер: 2.83 GB
Как cкачать? Как скачать Приворот. Черное венчание через торрент | UTorrent

28-11-2019 20:33  

Отключить вcю реклaмy на сайте

    Дорогой пользователь! Огромная просьба, поблагодарите релизера, оцените раздачу и оставьте свои комментарий, если Вы скачали Приворот. Черное венчание через торрент бесплатно!!
    Комментировать посты могут только пользователи прошедшие не сложную регистрацию
    Показать сообщения:    


    Приворот. Черное венчание через торрент
    Скачать бесплатно Приворот. Черное венчание
    Приворот. Черное венчание скачать торрент
    Приворот. Черное венчание смотреть онлайн
    Cкачать фильм Приворот. Черное венчание бесплатно
    Приворот. Черное венчание скачать торрент в хорошем качестве
    Приворот. Черное венчание смотреть онлайн бесплатно в хорошем качестве
    Вы не можете начинать темы
    Вы не можете отвечать на сообщения
    Вы не можете редактировать свои сообщения
    Вы не можете удалять свои сообщения
    Вы не можете голосовать в опросах
    Вы не можете прикреплять файлы к сообщениям
    Вы можете скачивать файлы