Доктор Стрэндж

Лицензия

Добыча

MVO

Дом дракона

1 сезон

Тор

Лицензия

Мэверик

Лицензия

Там, где раки поют

MVO

Властелин колец

1 сезон

Ultimate

pack

Рекомендуем

30

Repack

ВАЖНО

ВАЖНО

Ghostwire

RePack

jed

RePack

nioh2

RePack

RDR2

RePack

NEED FOR SPEED™ PAYBACK

RePack

скачать торрент

Кинопоиск HD

Острые козырьки 6 сезон

6 сезон

FAR CRY 6

RePack

скачать торрент

Лицензия

скачать торрент

MVO

1

1 сезон

скачать торрент

1 сезон

скачать торрент

Лицензия

  

Алита: Боевой ангел / Alita: Battle Angel (Роберт Родригес) [2019, фантастика, боевик, триллер, мелодрама, приключения, BDRip (HEVC) 1080p] 2x[DUB] (Rus, Ukr) + 2[MVO] +3x[AVO]

Алита: Боевой ангел через торрент pb.wtf

Раздают: 1 [ 0 KB/s ]
Размер: 6.74 GB | Добавлен: 7 мес. назад | Торрент скачан:105 раз
Смотреть онлайн Алита: Боевой ангел | Скачать   

24-03-2021 12:31 Алита: Боевой ангел Скачать торрент  

Алита: Боевой ангел / Alita: Battle Angel
Год выхода : 2019
Страна : США, Канада, Аргентина
Производство : 20th Century Fox Film Corporation, Lightstorm Entertainment, Troublemaker Studios, TSG Entertainment
Жанр : Фантастика, боевик, триллер, мелодрама, приключения
Продолжительность : 02:01:47
Перевод #1: Профессиональный (дублированный) CPI Films (BD CEE)
Перевод #2: Профессиональный (многоголосый) [СВ Студия]
Перевод #3: Профессиональный (многоголосый) *HDRezka Studio*
Перевод #4: Авторский (одноголосый, закадровый) Леонид Володарский
Перевод #5: Авторский (одноголосый, закадровый) Андрей Дольский
Перевод #6: Авторский (одноголосый, закадровый) Юрий Сербин
Перевод #7: Украинский (дублированный)

Субтитры: русские (forced, full), английские

Режиссер : Роберт Родригес

В ролях : Роза Салазар, Эйса Гонсалес, Дженнифер Коннелли, Махершала Али, Лана Кондор, Мишель Родригес, Кристоф Вальц, Эд Скрейн, Джеки Эрл Хейли, Хорхе Лендеборг мл.

Описание : Действие фильма происходит через 300 лет после Великой войны в XXVI веке. Доктор Идо находит останки женщины-киборга. После починки киборг ничего не помнит, но обнаруживает, что в состоянии пользоваться боевыми приемами киборгов. Начинаются поиски утерянных воспоминаний.

Фильм основан на манге «Gunnm» Юкито Кисиро (1990-1995). В США манга была издана под названием «Боевой ангел Алита» («Battle Angel Alita»).

rating

Качество: BDRip (HEVC)1080p
Формат: MKV
Видео кодек: x.265
Аудио кодек: AC3, E-AC3
Видео: HEVC , 1920x804, 3 406 kbps, 23,976 fps, 10 бит
Аудио #1: русский, AC3, 5.1 ch, 48 kHz, 448 kbps - Профессиональный (дублированный) CPI Films (BD CEE)
Аудио #2: русский, AC3, 5.1 ch, 48 kHz, 640 kbps - Профессиональный (многоголосый, закадровый) СВ Студия
Аудио #3: русский, AC3, 5.1 ch, 48 kHz, 640 kbps - Профессиональный (многоголосый, закадровый) HDRezka Studio
Аудио #4: русский, AC3, 5.1 ch, 48 kHz, 640 kbps - Авторский (одноголосый, закадровый) Володарский Леонид Вениаминович
Аудио #5: русский, AC3, 5.1 ch, 48 kHz, 640 kbps - Авторский (одноголосый, закадровый) Дольский Андрей Игоревич
Аудио #6: русский, AC3, 5.1 ch, 48 kHz, 640 kbps - Авторский (одноголосый, закадровый) Сербин Юрий Владимирович
Аудио #7: украинский, AC3, 5.1 ch, 48 kHz, 448 kbps - Профессиональный (дублированный) Postmodern
Аудио #8: английский, E-AC-3, 5.1 ch, 48 kHz, 448 kbps
General
Unique ID : 176026521356593112167591000083843302829 (0x846D798FAF2D4C6FB19AB01A54F0C5AD)
Complete name : G:\ФИЛЬМЫ\Alita_Battle Angel.(2019).BDRip (HEVC)1080p.2x[DUB] (Rus, Ukr), 2x[MVO], 3x[AVO].xz.mkv
Format : Matroska
Format version : Version 4
File size : 6.74 GiB
Duration : 2 h 1 min
Overall bit rate : 7 916 kb/s
Movie name : Alita_Battle Angel.(2019).BDRip (HEVC)1080p.2x[DUB] (Rus, Ukr), 2x[MVO], 3x[AVO].xz
Encoded date : UTC 2021-03-24 12:04:29
Writing application : mkvmerge v6.1.0 ('Old Devil') built on Mar 2 2013 14:32:37
Writing library : libebml v1.3.0 + libmatroska v1.4.0

Video
ID : 1
Format : HEVC
Format/Info : High Efficiency Video Coding
Format profile : Main [email protected]@Main
Codec ID : V_MPEGH/ISO/HEVC
Duration : 2 h 1 min
Bit rate : 3 406 kb/s
Width : 1 920 pixels
Height : 804 pixels
Display aspect ratio : 2.40:1
Frame rate mode : Constant
Frame rate : 23.976 (24000/1001) FPS
Color space : YUV
Chroma subsampling : 4:2:0
Bit depth : 10 bits
Bits/(Pixel*Frame) : 0.092
Stream size : 2.90 GiB (43%)
Title : Alita_Battle Angel.(2019).BDRip (HEVC)1080p.2x[DUB] (Rus, Ukr), 2x[MVO], 3x[AVO].xz
Writing library : x265 2.9:[Windows][GCC 8.2.0][64 bit] 10bit
Encoding settings : cpuid=1111039 / frame-threads=3 / numa-pools=8 / wpp / no-pmode / no-pme / no-psnr / no-ssim / log-level=2 / input-csp=1 / input-res=1920x804 / interlace=0 / total-frames=0 / level-idc=0 / high-tier=1 / uhd-bd=0 / ref=5 / no-allow-non-conformance / no-repeat-headers / annexb / no-aud / no-hrd / info / hash=0 / no-temporal-layers / open-gop / min-keyint=24 / keyint=240 / gop-lookahead=0 / bframes=8 / b-adapt=2 / b-pyramid / bframe-bias=0 / rc-lookahead=120 / lookahead-slices=0 / scenecut=40 / radl=0 / no-intra-refresh / ctu=64 / min-cu-size=8 / rect / amp / max-tu-size=32 / tu-inter-depth=3 / tu-intra-depth=3 / limit-tu=4 / rdoq-level=2 / dynamic-rd=0.00 / no-ssim-rd / signhide / no-tskip / nr-intra=0 / nr-inter=0 / no-constrained-intra / strong-intra-smoothing / max-merge=4 / limit-refs=1 / limit-modes / me=3 / subme=4 / merange=57 / temporal-mvp / weightp / weightb / no-analyze-src-pics / deblock=0:0 / sao / no-sao-non-deblock / rd=6 / no-early-skip / rskip / no-fast-intra / no-tskip-fast / no-cu-lossless / b-intra / no-splitrd-skip / rdpenalty=0 / psy-rd=2.00 / psy-rdoq=1.00 / no-rd-refine / no-lossless / cbqpoffs=0 / crqpoffs=0 / rc=abr / bitrate=3550 / qcomp=0.60 / qpstep=4 / stats-write=0 / stats-read=2 / cplxblur=20.0 / qblur=0.5 / ipratio=1.40 / pbratio=1.30 / aq-mode=1 / aq-strength=1.00 / cutree / zone-count=0 / no-strict-cbr / qg-size=32 / no-rc-grain / qpmax=69 / qpmin=0 / no-const-vbv / sar=1 / overscan=0 / videoformat=5 / range=0 / colorprim=1 / transfer=1 / colormatrix=1 / chromaloc=0 / display-window=0 / max-cll=0,0 / min-luma=0 / max-luma=1023 / log2-max-poc-lsb=8 / vui-timing-info / vui-hrd-info / slices=1 / no-opt-qp-pps / no-opt-ref-list-length-pps / no-multi-pass-opt-rps / scenecut-bias=0.05 / no-opt-cu-delta-qp / no-aq-motion / no-hdr / no-hdr-opt / no-dhdr10-opt / no-idr-recovery-sei / analysis-reuse-level=5 / scale-factor=0 / refine-intra=0 / refine-inter=0 / refine-mv=0 / no-limit-sao / ctu-info=0 / no-lowpass-dct / refine-mv-type=0 / copy-pic=1 / max-ausize-factor=1.0 / no-dynamic-refine / no-single-sei
Default : Yes
Forced : No
Color range : Limited
Color primaries : BT.709
Transfer characteristics : BT.709
Matrix coefficients : BT.709
Duration_Source : General_Duration

Audio #1
ID : 2
Format : AC-3
Format/Info : Audio Coding 3
Commercial name : Dolby Digital
Codec ID : A_AC3
Duration : 2 h 1 min
Bit rate mode : Constant
Bit rate : 448 kb/s
Channel(s) : 6 channels
Channel layout : L R C LFE Ls Rs
Sampling rate : 48.0 kHz
Frame rate : 31.250 FPS (1536 SPF)
Compression mode : Lossy
Stream size : 391 MiB (6%)
Title : DUB
Language : Russian
Service kind : Complete Main
Default : Yes
Forced : No
Duration_Source : General_Duration

Audio #2
ID : 3
Format : AC-3
Format/Info : Audio Coding 3
Commercial name : Dolby Digital
Codec ID : A_AC3
Duration : 2 h 1 min
Bit rate mode : Constant
Bit rate : 640 kb/s
Channel(s) : 6 channels
Channel layout : L R C LFE Ls Rs
Sampling rate : 48.0 kHz
Frame rate : 31.250 FPS (1536 SPF)
Compression mode : Lossy
Stream size : 558 MiB (8%)
Title : CB Studio
Language : Russian
Service kind : Complete Main
Default : No
Forced : No
Duration_Source : General_Duration

Audio #3
ID : 4
Format : AC-3
Format/Info : Audio Coding 3
Commercial name : Dolby Digital
Codec ID : A_AC3
Duration : 2 h 1 min
Bit rate mode : Constant
Bit rate : 448 kb/s
Channel(s) : 6 channels
Channel layout : L R C LFE Ls Rs
Sampling rate : 48.0 kHz
Frame rate : 31.250 FPS (1536 SPF)
Compression mode : Lossy
Stream size : 391 MiB (6%)
Title : HDRezka Studio
Language : Russian
Service kind : Complete Main
Default : No
Forced : No
Duration_Source : General_Duration

Audio #4
ID : 5
Format : AC-3
Format/Info : Audio Coding 3
Commercial name : Dolby Digital
Codec ID : A_AC3
Duration : 2 h 1 min
Bit rate mode : Constant
Bit rate : 640 kb/s
Channel(s) : 6 channels
Channel layout : L R C LFE Ls Rs
Sampling rate : 48.0 kHz
Frame rate : 31.250 FPS (1536 SPF)
Compression mode : Lossy
Stream size : 558 MiB (8%)
Title : Volodarskiy
Language : Russian
Service kind : Complete Main
Default : No
Forced : No
Duration_Source : General_Duration

Audio #5
ID : 6
Format : AC-3
Format/Info : Audio Coding 3
Commercial name : Dolby Digital
Codec ID : A_AC3
Duration : 2 h 1 min
Bit rate mode : Constant
Bit rate : 640 kb/s
Channel(s) : 6 channels
Channel layout : L R C LFE Ls Rs
Sampling rate : 48.0 kHz
Frame rate : 31.250 FPS (1536 SPF)
Compression mode : Lossy
Stream size : 558 MiB (8%)
Title : Dolskiy
Language : Russian
Service kind : Complete Main
Default : No
Forced : No
Duration_Source : General_Duration

Audio #6
ID : 7
Format : AC-3
Format/Info : Audio Coding 3
Commercial name : Dolby Digital
Codec ID : A_AC3
Duration : 2 h 1 min
Bit rate mode : Constant
Bit rate : 640 kb/s
Channel(s) : 6 channels
Channel layout : L R C LFE Ls Rs
Sampling rate : 48.0 kHz
Frame rate : 31.250 FPS (1536 SPF)
Compression mode : Lossy
Stream size : 558 MiB (8%)
Title : Serbin
Language : Russian
Service kind : Complete Main
Default : No
Forced : No
Duration_Source : General_Duration

Audio #7
ID : 8
Format : AC-3
Format/Info : Audio Coding 3
Commercial name : Dolby Digital
Codec ID : A_AC3
Duration : 2 h 1 min
Bit rate mode : Constant
Bit rate : 448 kb/s
Channel(s) : 6 channels
Channel layout : L R C LFE Ls Rs
Sampling rate : 48.0 kHz
Frame rate : 31.250 FPS (1536 SPF)
Compression mode : Lossy
Stream size : 391 MiB (6%)
Title : Ukr DUB
Language : Ukrainian
Service kind : Complete Main
Default : No
Forced : No
Duration_Source : General_Duration

Audio #8
ID : 9
Format : E-AC-3
Format/Info : Enhanced AC-3
Commercial name : Dolby Digital Plus
Codec ID : A_EAC3
Duration : 2 h 1 min
Bit rate mode : Constant
Bit rate : 448 kb/s
Channel(s) : 6 channels
Channel layout : L R C LFE Ls Rs
Sampling rate : 48.0 kHz
Frame rate : 31.250 FPS (1536 SPF)
Compression mode : Lossy
Stream size : 391 MiB (6%)
Title : English 5.1 EAC3 448kbps 48khz 16bits
Language : English
Service kind : Complete Main
Default : No
Forced : No
Statistics Tags Issue : mkvmerge v33.1.0 ('Primrose') 64-bit 2019-07-17 11:49:26 / mkvmerge v6.1.0 ('Old Devil') built on Mar 2 2013 14:32:37 2021-03-24 12:04:29
FromStats_BitRate : 448000
FromStats_Duration : 02:01:57.344000000
FromStats_FrameCount : 228667
FromStats_StreamSize : 409771264
Duration_Source : General_Duration

Text #1
ID : 10
Format : PGS
Muxing mode : zlib
Codec ID : S_HDMV/PGS
Codec ID/Info : Picture based subtitle format used on BDs/HD-DVDs
Title : English full SDH PGS
Language : English
Default : No
Forced : No
Statistics Tags Issue : mkvmerge v33.1.0 ('Primrose') 64-bit 2019-07-17 11:49:26 / mkvmerge v6.1.0 ('Old Devil') built on Mar 2 2013 14:32:37 2021-03-24 12:04:29
FromStats_BitRate : 30623
FromStats_Duration : 01:58:28.906000000
FromStats_FrameCount : 3180
FromStats_StreamSize : 27212879

Text #2
ID : 11
Format : UTF-8
Codec ID : S_TEXT/UTF8
Codec ID/Info : UTF-8 Plain Text
Title : rus (forced)
Language : Russian
Default : No
Forced : No

Text #3
ID : 12
Format : UTF-8
Codec ID : S_TEXT/UTF8
Codec ID/Info : UTF-8 Plain Text
Title : rus (full)
Language : Russian
Default : No
Forced : No

Menu
00:00:00.000 : :01 - 00:00:00
00:03:28.625 : :02 - 00:03:28
00:07:51.679 : :03 - 00:07:51
00:10:07.982 : :04 - 00:10:07
00:13:06.702 : :05 - 00:13:06
00:15:06.739 : :06 - 00:15:06
00:18:04.541 : :07 - 00:18:04
00:22:58.710 : :08 - 00:22:58
00:25:35.325 : :09 - 00:25:35
00:31:40.898 : :10 - 00:31:40
00:33:29.215 : :11 - 00:33:29
00:36:32.815 : :12 - 00:36:32
00:38:30.891 : :13 - 00:38:30
00:42:05.481 : :14 - 00:42:05
00:45:58.213 : :15 - 00:45:58
00:48:31.450 : :16 - 00:48:31
00:52:57.007 : :17 - 00:52:57
00:55:14.352 : :18 - 00:55:14
01:00:39.761 : :19 - 01:00:39
01:02:56.564 : :20 - 01:02:56
01:05:16.787 : :21 - 01:05:16
01:10:50.496 : :22 - 01:10:50
01:13:37.287 : :23 - 01:13:37
01:16:35.215 : :24 - 01:16:35
01:18:52.227 : :25 - 01:18:52
01:22:48.296 : :26 - 01:22:48
01:24:55.340 : :27 - 01:24:55
01:28:25.216 : :28 - 01:28:25
01:33:18.551 : :29 - 01:33:18
01:36:08.762 : :30 - 01:36:08
01:41:54.691 : :31 - 01:41:54
01:45:23.442 : :32 - 01:45:23
01:48:16.489 : :33 - 01:48:16
01:51:43.655 : :34 - 01:51:43
01:54:43.668 : :35 - 01:54:43
01:56:51.504 : :36 - 01:56:51
скриншот   скриншот   скриншот   скриншот   скриншот   скриншот   скриншот  



Скачать Алита: Боевой ангел через торрент https://a.radikal.ru/a38/1902/5b/feae0f58a2bd.png Скачать, смотреть онлайн Алита: Боевой ангел бесплантно в хорошем качестве Описание : Действие фильма происходит через 300 лет после Великой войны в XXVI веке. Доктор Идо находит останки женщины-киборга. После ... 8.8 10 11
Торрент: Зарегистрирован [2022-02-05 21:57] · скачан: 105 раз
Статус: √ проверено
Размер: 6.74 GB
Как cкачать? Как скачать Алита: Боевой ангел через торрент | UTorrent

28-11-2019 20:33  

Отключить вcю реклaмy на сайте

06-02-2022 07:54 Алита: Боевой ангел Скачать торрент  

там второе дно есть, якобы )



06-02-2022 07:59 Алита: Боевой ангел Скачать торрент  

Неплохой кинец, но хуже аниме .В целом- слабовато , но
разик глянуть -норм.



06-02-2022 12:28 Алита: Боевой ангел Скачать торрент  

Фильм отличнейший, смотрел много раз. Но. Есть ли режиссёрская версия, расширенная, а то очень много моментов "вырезано"? Мб кто видел?
Kkillermax2013 писал(а):


Может и есть но только у режиссера и он ею не делится



06-02-2022 15:28 Алита: Боевой ангел Скачать торрент  

офигенский , стоит посмотреть .



08-02-2022 01:48 Алита: Боевой ангел Скачать торрент  

Лучше бы продолжение этого кинца сняли, чем стотысячную серию марвеловских мстителей.
Kkillermax2013 писал(а):


+1



    Дорогой пользователь! Огромная просьба, поблагодарите релизера, оцените раздачу и оставьте свои комментарий, если Вы скачали Алита: Боевой ангел через торрент бесплатно!!
    Комментировать посты могут только пользователи прошедшие не сложную регистрацию
    Показать сообщения:    


    Алита: Боевой ангел через торрент
    Скачать бесплатно Алита: Боевой ангел
    Алита: Боевой ангел скачать торрент
    Алита: Боевой ангел смотреть онлайн
    Cкачать фильм Алита: Боевой ангел бесплатно
    Алита: Боевой ангел скачать торрент в хорошем качестве
    Алита: Боевой ангел смотреть онлайн бесплатно в хорошем качестве
    Вы не можете начинать темы
    Вы не можете отвечать на сообщения
    Вы не можете редактировать свои сообщения
    Вы не можете удалять свои сообщения
    Вы не можете голосовать в опросах
    Вы не можете прикреплять файлы к сообщениям
    Вы можете скачивать файлы