Всегда рабочее зеркало без VPN и Proxy просто перед .vidak.icu напиши любое слово или цифру, Пример http://s79x.vidak.icu

MVO

2 сезон

1 сезон

1

1 сезон

iTunes

2 сезон

13

1 сезон

Deluxe

pack

Рекомендуем

Пиратка

30

ВАЖНО

RePack

MK11

RePack

jed

RePack

fifa19

RePack

RDR2

RePack

NEED FOR SPEED™ PAYBACK

Кинопоиск HD

6 сезон

 Острые козырьки 6 сезон

Все сериалы

все сериалы на PB.wtf

RePack

FAR CRY 5

Anonymous, нам критически не хватает 5601 руб. на оплату серверов и переферии за Апрель, помоги нам пожалуйста, вся надежда только на тебя. В благодарность мы отключим тебе всю рекламу на сайте!

×
  
Magnet ссылка

Аэронавты / The Aeronauts (Том Харпер) [2019, Приключения, мелодрама, драма, биография, WEBRip-AVC] MVO [NewComers] от MediaBit pb.wtf

Аэронавты через торрент pb.wtf

Размер: 2.05 GB | Добавлен: 1 год 1 мес. назад | Торрент скачан:249 раз
Смотреть онлайн Аэронавты | Скачать    Ребята, помогите собрать деньги на оплату серверов!!!

24-03-2021 20:51 Аэронавты Скачать торрент  


Аэронавты / The Aeronauts
Информация о фильме:
Название: Аэронавты
Оригинальное название: The Aeronauts
Год выхода: 2019
Жанр: приключения, мелодрама, драма, биография
Режиссер: Том Харпер

В ролях: Фелисити Джонс, Эдди Редмэйн, Химеш Патель, Левин Ллойд, Том Кортни, Фиби Фокс, Венсан Перес, Энн Рейд, Тим МакИннерни, Ребекка Фронт, Роберт Гленистер и другие.

Описание: Лондон. 1862 год. Она - очаровательная богатая молодая женщина, увлеченная управлением воздушных шаров. Он - исследователь метеоролог, готовый на все, чтобы совершить научный прорыв. Самой судьбой им было предназначено взлететь выше, чем кто-либо в истории. Вдвоем они отправятся в отчаянное путешествие на аэростате, через бури и грозы на край неизведанного мира, где воздух разряжен, а шансы на выживание невелики...



Страна: Великобритания, США
Студия: Amazon Studios, Mandeville Films, One Shoe Films
Продолжительность: 01:40:29
Перевод: Профессиональный (многоголосый, закадровый) - NewComers



Информация о файле:
Кодек: AVC
Формат: MKV
Качество: WEBRip-AVC
Видео: MPEG-4 AVC, 1024x428, 23.976 fps, 2023 kbps
Аудио RU: AC3, 6 ch, 48 kHz, 448 kbps
Аудио EN: AC3, 6 ch, 48 kHz, 448 kbps
Субтитры: Русские
Навигация по главам: Да

x264 info: frame I:880 Avg QP:14.45 size: 74356
x264 info: frame P:38980 Avg QP:17.70 size: 21830
x264 info: frame B:104700 Avg QP:21.57 size: 5808
x264 info: consecutive B-frames: 3.4% 6.3% 10.9% 48.9% 10.2% 14.3% 3.0% 2.5% 0.4% 0.1% 0.1%
********************************
General
Unique ID : 329037270704146024021412865510874256179 (0xF78A45F38187E5567CD81A5D8FDF9333)
Complete name : D:uTorrentРипы_от_wolf1245_MediaBitThe Aeronauts.2019.MVO.NewComers.WEBRip-AVC_wolf1245_MediaBit.mkv
Format : Matroska
Format version : Version 4
File size : 2.05 GiB
Duration : 1 h 40 min
Overall bit rate : 2 921 kb/s
Movie name : The Aeronauts.2019.MVO.NewComers.WEBRip-AVC_wolf1245_MediaBit
Encoded date : UTC 2021-03-24 20:40:26
Writing application : mkvmerge v55.0.0 ('Waiting For Space') 64-bit
Writing library : libebml v1.4.2 + libmatroska v1.6.4
Video
ID : 1
Format : AVC
Format/Info : Advanced Video Codec
Format profile : High@L4.1
Format settings : CABAC / 12 Ref Frames
Format settings, CABAC : Yes
Format settings, Reference frames : 12 frames
Codec ID : V_MPEG4/ISO/AVC
Duration : 1 h 40 min
Bit rate : 2 023 kb/s
Width : 1 024 pixels
Height : 428 pixels
Display aspect ratio : 2.40:1
Frame rate mode : Constant
Frame rate : 23.976 (24000/1001) FPS
Color space : YUV
Chroma subsampling : 4:2:0
Bit depth : 8 bits
Scan type : Progressive
Bits/(Pixel*Frame) : 0.193
Stream size : 1.42 GiB (69%)
Title : _wolf1245_MediaBit
Writing library : x264 core 157 r2958 57baac4
Encoding settings : cabac=1 / ref=12 / deblock=1:-3:-3 / analyse=0x3:0x133 / me=umh / subme=11 / psy=1 / psy_rd=1.00:0.05 / mixed_ref=1 / me_range=48 / chroma_me=1 / trellis=2 / 8x8dct=1 / cqm=0 / deadzone=21,11 / fast_pskip=1 / chroma_qp_offset=-3 / threads=10 / lookahead_threads=2 / sliced_threads=0 / nr=0 / decimate=1 / interlaced=0 / bluray_compat=0 / constrained_intra=0 / bframes=10 / b_pyramid=2 / b_adapt=2 / b_bias=0 / direct=3 / weightb=1 / open_gop=0 / weightp=2 / keyint=240 / keyint_min=24 / scenecut=40 / intra_refresh=0 / rc_lookahead=60 / rc=2pass / mbtree=1 / bitrate=2023 / ratetol=1.0 / qcomp=0.60 / qpmin=0 / qpmax=69 / qpstep=4 / cplxblur=20.0 / qblur=0.5 / vbv_maxrate=50000 / vbv_bufsize=62500 / nal_hrd=none / filler=0 / ip_ratio=1.40 / aq=1:0.80
Language : English
Default : Yes
Forced : No
Color range : Limited
Color primaries : BT.709
Transfer characteristics : BT.709
Matrix coefficients : BT.709
Audio #1
ID : 2
Format : AC-3
Format/Info : Audio Coding 3
Commercial name : Dolby Digital
Codec ID : A_AC3
Duration : 1 h 40 min
Bit rate mode : Constant
Bit rate : 448 kb/s
Channel(s) : 6 channels
Channel layout : L R C LFE Ls Rs
Sampling rate : 48.0 kHz
Frame rate : 31.250 FPS (1536 SPF)
Bit depth : 32 bits
Compression mode : Lossy
Stream size : 322 MiB (15%)
Title : MVO | NewComers
Language : Russian
Service kind : Complete Main
Default : Yes
Forced : No
Audio #2
ID : 3
Format : AC-3
Format/Info : Audio Coding 3
Commercial name : Dolby Digital
Codec ID : A_AC3
Duration : 1 h 40 min
Bit rate mode : Constant
Bit rate : 448 kb/s
Channel(s) : 6 channels
Channel layout : L R C LFE Ls Rs
Sampling rate : 48.0 kHz
Frame rate : 31.250 FPS (1536 SPF)
Bit depth : 32 bits
Compression mode : Lossy
Stream size : 322 MiB (15%)
Title : ORIGINAL
Language : English
Service kind : Complete Main
Default : No
Forced : No
Text
ID : 4
Format : UTF-8
Codec ID : S_TEXT/UTF8
Codec ID/Info : UTF-8 Plain Text
Duration : 1 h 35 min
Bit rate : 68 b/s
Count of elements : 987
Stream size : 47.8 KiB (0%)
Title : RUS
Language : Russian
Default : No
Forced : No
Menu
00:00:00.000 : :Studio Logo
00:00:39.000 : :Acknowledgement
00:00:44.000 : :Doubt is there to be listened to
00:03:39.000 : :Title Sequence
00:03:46.000 : :Preparing for flight
00:09:54.000 : :Flying over London
00:14:13.000 : :James wants to makes a scientific impact
00:18:37.000 : :The safest way is up
00:27:27.000 : :The silence of the upper atmosphere
00:32:23.000 : :A proposal to rewrite the rules of the air
00:40:14.000 : :Opening up about Pierre
00:45:15.000 : :The truth about fear and loss
00:52:51.000 : :Risking everything to break records
00:59:09.000 : :Facing her fear
01:02:04.000 : :The truth about Pierre
01:07:17.000 : :The dangers of thin air
01:15:26.000 : :Waiting for the descent
01:23:13.000 : :Bringing the stars closer
01:26:04.000 : :Quick thinking to save lives
01:31:32.000 : :All in the name of discovery
01:36:28.000 : :End Credits
Релиз от: &
Автор релиза:
pb.wtf



Скачать Аэронавты через торрент https://i114.fastpic.ru/big/2021/0324/55/9336560f41c4f708dd41c924456bd255.jpg Скачать, смотреть онлайн Аэронавты бесплантно в хорошем качестве Описание: Лондон. 1862 год. Она - очаровательная богатая молодая женщина, увлеченная управлением воздушных шаров. Он - исследователь ... 10 10 9
Торрент: Зарегистрирован [2021-03-24 20:51] · скачан: 249 раз
Статус: √ проверено
Размер: 2.05 GB
Как cкачать? Как скачать Аэронавты через торрент | UTorrent

28-11-2019 20:33  

Отключить всю рекламу на сайте

    Дорогой пользователь! Огромная просьба, поблагодарите релизера, оцените раздачу и оставьте свои комментарий, если Вы скачали Аэронавты через торрент бесплатно!
    Комментировать посты могут только пользователи прошедшие не сложную регистрацию
    Показать сообщения:    

    Аэронавты через торрент
    Скачать бесплатно Аэронавты
    Аэронавты скачать торрент
    Аэронавты смотреть онлайн
    Cкачать фильм Аэронавты бесплатно
    Аэронавты скачать торрент в хорошем качестве
    Аэронавты смотреть онлайн бесплатно в хорошем качестве


    Вы не можете начинать темы
    Вы не можете отвечать на сообщения
    Вы не можете редактировать свои сообщения
    Вы не можете удалять свои сообщения
    Вы не можете голосовать в опросах
    Вы не можете прикреплять файлы к сообщениям
    Вы можете скачивать файлы