Присоединяйтесь к нам в Telegram!, здесь всегда актуальный адрес сайта, оперативная поддержка и многое другое!!

>

5.9

iTunes

7.4

iTunes

9.4

1 сезон

1

7.4

2 сезон

7.2

iTunes

7.3

1 сезон

13

6.1

iTunes

8.3

GOG

30

ULTIMATE

pack

9.9

Лицензия

ВАЖНО

ИГРА 18+

pack

7.3

RePack

MK11

7.7

RePack

jed

7.8

RePack

fifa19

8.5

RePack

RDR2

RePack

NEED FOR SPEED™ PAYBACK

5 сезон

9 сезон

Бесстыжие 9 сезон

Все сериалы

все сериалы на PB.wtf

RePack

FAR CRY 5

Anonymous, доброе утро, мы катастрофически не успеваем собрать деньги на оплату серверов, помогите нам пожалуйста 5,10,15р., для нас важна любая помощь . В качестве благодарности мы отключим Вам всю рекламу на сайте (укажите свой ник в строку Ваше имя)!

×
  
Magnet ссылка

Летний лагерь / A Week Away (Анна Элизабет Джеймс) [2021, Мюзикл, драма, семейный, WEB-DLRip-AVC] DUB [Netflix] от MediaBit pb.wtf

Летний лагерь через торрент pb.wtf

Размер: 1.45 GB | Добавлен: 8 мес. назад | Торрент скачан:36 раз
Смотреть онлайн Летний лагерь | Скачать    Ребята, помогите собрать деньги на оплату серверов!!!

28-03-2021 15:05 Летний лагерь Скачать торрент  


Летний лагерь / A Week Away
Информация о фильме:
Название: Летний лагерь
Оригинальное название: A Week Away
Год выхода: 2021
Жанр: Мюзикл, драма, семейный
Режиссер: Роман Уайт

В ролях: Бэйли Мэдисон, Дэвид Кокнер, Кевин Дж. Куинн, Шерри Шеперд, Эд Аматрудо, Мари Касуя, Бруклин Виттмер, Йен Такер, Кэт Коннер Стерлинг, Кристофер Л. Планкетт

Описание: Трудный подросток Уилл Хокинс должен провести каникулы в христианском летнем лагере вместо тюрьмы для несовершеннолетних. Сначала Уилл чувствует себя чужим среди местной молодежи, но неожиданно для него самого именно здесь герой находит лучшего друга, любимую девушку и обретает новый смысл своей жизни в вере и музыке.



Страна: США
Студия: Monarch Media, Rove Productions
Продолжительность: 01:37:51
Перевод: Дублированный - Netflix



Информация о файле:
Кодек: AVC
Формат: MKV
Качество: WEB-DLRip-AVC
Видео: MPEG-4 AVC, 1024x428, 23.976 fps, 1674 kbps
Аудио RU: AC3, 6 ch, 48 kHz, 448 kbps
Субтитры: Русские (Forced, full), английские
Навигация по главам: Нет

x264 info: frame I:1427 Avg QP:15.49 size: 62050
x264 info: frame P:33820 Avg QP:20.47 size: 18721
x264 info: frame B:105521 Avg QP:22.61 size: 4307
x264 info: consecutive B-frames: 3.6% 4.4% 11.9% 21.0% 12.6% 42.2% 1.0% 0.4% 0.9% 2.0%
********************************
General
Unique ID : 98877535357600153533748854584219117310 (0x4A631EE0C58158EA6EF1D26309A1A6FE)
Complete name : D:uTorrentРипы_от_wolf1245_MediaBitA Week Away.2021.DUB.Netflix.WEB-DLRip-AVC_wolf1245_MediaBit.mkv
Format : Matroska
Format version : Version 4
File size : 1.45 GiB
Duration : 1 h 37 min
Overall bit rate : 2 124 kb/s
Movie name : A Week Away.2021.DUB.Netflix.WEB-DLRip-AVC_wolf1245_MediaBit
Encoded date : UTC 2021-03-28 14:47:12
Writing application : mkvmerge v55.0.0 ('Waiting For Space') 64-bit
Writing library : libebml v1.4.2 + libmatroska v1.6.4
Video
ID : 1
Format : AVC
Format/Info : Advanced Video Codec
Format profile : High@L4.1
Format settings : CABAC / 12 Ref Frames
Format settings, CABAC : Yes
Format settings, Reference frames : 12 frames
Codec ID : V_MPEG4/ISO/AVC
Duration : 1 h 37 min
Bit rate : 1 674 kb/s
Width : 1 024 pixels
Height : 428 pixels
Display aspect ratio : 2.40:1
Frame rate mode : Constant
Frame rate : 23.976 (24000/1001) FPS
Color space : YUV
Chroma subsampling : 4:2:0
Bit depth : 8 bits
Scan type : Progressive
Bits/(Pixel*Frame) : 0.159
Stream size : 1.14 GiB (79%)
Title : _wolf1245_MediaBit
Writing library : x264 core 157 r2958 57baac4
Encoding settings : cabac=1 / ref=12 / deblock=1:0:0 / analyse=0x3:0x133 / me=umh / subme=10 / psy=1 / psy_rd=1.00:0.00 / mixed_ref=1 / me_range=32 / chroma_me=1 / trellis=2 / 8x8dct=1 / cqm=0 / deadzone=21,11 / fast_pskip=1 / chroma_qp_offset=-2 / threads=10 / lookahead_threads=1 / sliced_threads=0 / nr=0 / decimate=1 / interlaced=0 / bluray_compat=0 / constrained_intra=0 / bframes=9 / b_pyramid=2 / b_adapt=2 / b_bias=0 / direct=3 / weightb=1 / open_gop=0 / weightp=2 / keyint=240 / keyint_min=24 / scenecut=40 / intra_refresh=0 / rc_lookahead=60 / rc=2pass / mbtree=1 / bitrate=1674 / ratetol=1.0 / qcomp=0.60 / qpmin=0 / qpmax=69 / qpstep=4 / cplxblur=20.0 / qblur=0.5 / vbv_maxrate=50000 / vbv_bufsize=62500 / nal_hrd=none / filler=0 / ip_ratio=1.40 / aq=1:1.00
Language : English
Default : Yes
Forced : No
Audio
ID : 2
Format : AC-3
Format/Info : Audio Coding 3
Commercial name : Dolby Digital
Codec ID : A_AC3
Duration : 1 h 37 min
Bit rate mode : Constant
Bit rate : 448 kb/s
Channel(s) : 6 channels
Channel layout : L R C LFE Ls Rs
Sampling rate : 48.0 kHz
Frame rate : 31.250 FPS (1536 SPF)
Bit depth : 32 bits
Compression mode : Lossy
Stream size : 314 MiB (21%)
Title : DUB | Netflix
Language : Russian
Service kind : Complete Main
Default : Yes
Forced : No
Text #1
ID : 3
Format : UTF-8
Codec ID : S_TEXT/UTF8
Codec ID/Info : UTF-8 Plain Text
Duration : 1 h 34 min
Bit rate : 30 b/s
Count of elements : 391
Stream size : 21.3 KiB (0%)
Title : Forced
Language : Russian
Default : Yes
Forced : Yes
Text #2
ID : 4
Format : UTF-8
Codec ID : S_TEXT/UTF8
Codec ID/Info : UTF-8 Plain Text
Duration : 1 h 34 min
Bit rate : 100 b/s
Count of elements : 1362
Stream size : 69.6 KiB (0%)
Title : Full
Language : Russian
Default : No
Forced : No
Text #3
ID : 5
Format : UTF-8
Codec ID : S_TEXT/UTF8
Codec ID/Info : UTF-8 Plain Text
Duration : 1 h 34 min
Bit rate : 84 b/s
Count of elements : 1727
Stream size : 58.8 KiB (0%)
Title : English [SDH]
Language : English
Default : No
Forced : No
Релиз от: &
Автор релиза:
pb.wtf



Скачать Летний лагерь через торрент https://i114.fastpic.ru/big/2021/0328/29/66608f9213be0bdb85caa8e6cc153829.png Скачать, смотреть онлайн Летний лагерь бесплантно в хорошем качестве Описание: Трудный подросток Уилл Хокинс должен провести каникулы в христианском летнем лагере вместо тюрьмы для несовершеннолетних. ... 10 10 1
Торрент: Зарегистрирован [2021-03-28 15:05] · скачан: 36 раз
Статус: √ проверено
Размер: 1.45 GB
Как cкачать? Как скачать Летний лагерь через торрент | UTorrent

28-11-2019 20:33  

Отключить всю рекламу на сайте

    Дорогой пользователь! Огромная просьба, поблагодарите релизера, оцените раздачу и оставьте свои комментарий, если Вы скачали Летний лагерь через торрент бесплатно!
    Комментировать посты могут только пользователи прошедшие не сложную регистрацию
    Показать сообщения:    

    Летний лагерь через торрент
    Скачать бесплатно Летний лагерь
    Летний лагерь скачать торрент
    Летний лагерь смотреть онлайн
    Cкачать фильм Летний лагерь бесплатно
    Летний лагерь скачать торрент в хорошем качестве
    Летний лагерь смотреть онлайн бесплатно в хорошем качестве


    Вы не можете начинать темы
    Вы не можете отвечать на сообщения
    Вы не можете редактировать свои сообщения
    Вы не можете удалять свои сообщения
    Вы не можете голосовать в опросах
    Вы не можете прикреплять файлы к сообщениям
    Вы можете скачивать файлы