1 сезон

1 сезон

iTunes

1

КиноПоиск HD

Кинопоиск HD

iTunes

13

1 сезон

RePack

30

Новинка

ВАЖНО

ИГРА 18+

pack

RePack

MK11
pack

Легкие деньги

RePack

jed

RePack

fifa19

RePack

RDR2

RePack

NEED FOR SPEED™ PAYBACK

4 сезон

9 сезон

Бесстыжие 9 сезон

Все сериалы

все сериалы на PB.wtf

RePack

FAR CRY 5
  
Magnet ссылка

Семейка Крудс: Новоселье / The Croods: A New Age (Джоэль Кроуфорд) [2020, мультфильм, фэнтези, комедия, приключения, семейный, BDRip 1080p] DUB [Лицензия] +MVO [HDRezka Studio] pb.wtf

Семейка Крудс: Новоселье через торрент pb.wtf

Раздают: 14 [ 2 MB/s ] Качают: 1 [ 0 KB/s ]
Размер: 10.73 GB | Добавлен: 13 д. назад | Торрент скачан:94 раза
Скачать  

30-03-2021 03:50 Семейка Крудс: Новоселье Скачать торрент  

Семейка Крудс: Новоселье | The Croods: A New Age
«Когда пришли в светлое будущее, а там... уже кто-то живет»

Год выпуска: 2020
Страна: США
Выпущено: DreamWorks Animation
Жанр: мультфильм, фэнтези, комедия, приключения, семейный
Продолжительность: 01:35:14
Перевод:
#1: Дублированный | Лицензия
#2: Профессиональный (многоголосый, закадровый) | HDRezka Studio
Субтитры: Русские (2 x Forced, full), английские

Режиссер: Джоэль Кроуфорд

rating

В ролях: Николас Кейдж, Эмма Стоун, Райан Рейнольдс, Кэтрин Кинер, Клорис Личмен, Кларк Дьюк, Лесли Манн, Питер Динклэйдж, Келли Мари Трэн, Кайли Кроуфорд

Описание: Такие харизматичные герои как члены клана Крудс просто не в силах усидеть на месте. Они смело идут навстречу самым головокружительным приключениям и готовы ответить непредсказуемостью и находчивостью на любой вызов судьбы.

Качество: BDRip 1080p
Формат: MKV

Видео: MPEG-4 AVC, 1920x816, 14.6 Mbit/s, 23.976 fps
Аудио #01: 48 kHz, AC3, 5.1, 640 Kbps | Лицензия | RUS |
Аудио #02: 48 kHz, AC3, 5.1, 448 Kbps | HDRezka Studio | RUS |
Аудио #02: 48 kHz, AC3, 5.1, 448 Kbps | Оригинал | ENG |
скриншот  скриншот  скриншот  скриншот  

General
Unique ID : 72792832463693866562714529614538237669 (0x36C363BB5FE43611C5DDBCD30FD466E5)
Complete name : F:VideoThe.Croods.A.New.Age.2020.BDRip.1080p.seleZen.mkv
Format : Matroska
Format version : Version 4
File size : 10.7 GiB
Duration : 1 h 35 min
Overall bit rate : 16.1 Mb/s
Movie name : The Croods A New Age 2020 from seleZen
Encoded date : UTC 2021-03-30 02:23:20
Writing application : mkvmerge v55.0.0 ('Waiting For Space') 64-bit
Writing library : libebml v1.4.2 + libmatroska v1.6.4

Video
ID : 1
Format : AVC
Format/Info : Advanced Video Codec
Format profile : High@L4.1
Format settings : CABAC / 5 Ref Frames
Format settings, CABAC : Yes
Format settings, Reference : 5 frames
Codec ID : V_MPEG4/ISO/AVC
Duration : 1 h 35 min
Bit rate : 14.6 Mb/s
Width : 1 920 pixels
Height : 816 pixels
Display aspect ratio : 2.35:1
Frame rate mode : Constant
Frame rate : 23.976 (24000/1001) FPS
Color space : YUV
Chroma subsampling : 4:2:0
Bit depth : 8 bits
Scan type : Progressive
Bits/(Pixel*Frame) : 0.388
Stream size : 9.70 GiB (90%)
Title : LoRD
Writing library : x264 core 161 r3048 ->LoRD
Encoding settings : cabac=1 / ref=5 / deblock=1:-3:-3 / analyse=0x3:0x133 / me=umh / subme=10 / psy=1 / psy_rd=1.00:0.00 / mixed_ref=1 / me_range=32 / chroma_me=1 / trellis=2 / 8x8dct=1 / cqm=0 / deadzone=21,11 / fast_pskip=0 / chroma_qp_offset=-2 / threads=25 / lookahead_threads=4 / sliced_threads=0 / nr=0 / decimate=0 / interlaced=0 / bluray_compat=0 / constrained_intra=0 / bframes=9 / b_pyramid=2 / b_adapt=2 / b_bias=0 / direct=3 / weightb=1 / open_gop=0 / weightp=2 / keyint=250 / keyint_min=23 / scenecut=40 / intra_refresh=0 / rc_lookahead=60 / rc=crf / mbtree=0 / crf=15.5 / qcomp=0.66 / qpmin=0 / qpmax=69 / qpstep=4 / vbv_maxrate=62500 / vbv_bufsize=78125 / crf_max=0.0 / nal_hrd=none / filler=0 / ip_ratio=1.20 / pb_ratio=1.20 / aq=3:0.99
Language : English
Default : Yes
Forced : No
Color range : Limited
Color primaries : BT.709
Transfer characteristics : BT.709
Matrix coefficients : BT.709

Audio #1
ID : 2
Format : AC-3
Format/Info : Audio Coding 3
Commercial name : Dolby Digital
Codec ID : A_AC3
Duration : 1 h 35 min
Bit rate mode : Constant
Bit rate : 640 kb/s
Channel(s) : 6 channels
Channel layout : L R C LFE Ls Rs
Sampling rate : 48.0 kHz
Frame rate : 31.250 FPS (1536 SPF)
Compression mode : Lossy
Stream size : 436 MiB (4%)
Title : Dub [License]
Language : Russian
Service kind : Complete Main
Default : Yes
Forced : Yes

Audio #2
ID : 3
Format : AC-3
Format/Info : Audio Coding 3
Commercial name : Dolby Digital
Codec ID : A_AC3
Duration : 1 h 35 min
Bit rate mode : Constant
Bit rate : 448 kb/s
Channel(s) : 6 channels
Channel layout : L R C LFE Ls Rs
Sampling rate : 48.0 kHz
Frame rate : 31.250 FPS (1536 SPF)
Compression mode : Lossy
Stream size : 305 MiB (3%)
Title : MVO [HDRezka Studio]
Language : Russian
Service kind : Complete Main
Default : No
Forced : No

Audio #3
ID : 4
Format : AC-3
Format/Info : Audio Coding 3
Commercial name : Dolby Digital
Codec ID : A_AC3
Duration : 1 h 35 min
Bit rate mode : Constant
Bit rate : 448 kb/s
Channel(s) : 6 channels
Channel layout : L R C LFE Ls Rs
Sampling rate : 48.0 kHz
Frame rate : 31.250 FPS (1536 SPF)
Compression mode : Lossy
Stream size : 305 MiB (3%)
Title : Original
Language : English
Service kind : Complete Main
Default : No
Forced : No

Text #1
ID : 5
Format : UTF-8
Codec ID : S_TEXT/UTF8
Codec ID/Info : UTF-8 Plain Text
Duration : 1 h 30 min
Bit rate : 0 b/s
Count of elements : 19
Stream size : 567 Bytes (0%)
Title : Forced [For Dub]
Language : Russian
Default : Yes
Forced : Yes

Text #2
ID : 6
Format : UTF-8
Codec ID : S_TEXT/UTF8
Codec ID/Info : UTF-8 Plain Text
Duration : 14 min 34 s
Bit rate : 4 b/s
Count of elements : 15
Stream size : 500 Bytes (0%)
Title : Forced [For HDRezka Studio]
Language : Russian
Default : No
Forced : No

Text #3
ID : 7
Format : UTF-8
Codec ID : S_TEXT/UTF8
Codec ID/Info : UTF-8 Plain Text
Duration : 1 h 26 min
Bit rate : 114 b/s
Count of elements : 1692
Stream size : 72.4 KiB (0%)
Title : Full
Language : Russian
Default : No
Forced : No

Text #4
ID : 8
Format : UTF-8
Codec ID : S_TEXT/UTF8
Codec ID/Info : UTF-8 Plain Text
Duration : 1 h 34 min
Bit rate : 70 b/s
Count of elements : 1709
Stream size : 48.5 KiB (0%)
Title : Full
Language : English
Default : No
Forced : No

Text #5
ID : 9
Format : UTF-8
Codec ID : S_TEXT/UTF8
Codec ID/Info : UTF-8 Plain Text
Duration : 1 h 34 min
Bit rate : 82 b/s
Count of elements : 1997
Stream size : 57.0 KiB (0%)
Title : SDH
Language : English
Default : No
Forced : No

Menu
00:00:00.000 : en:Chapter 1
00:06:36.563 : en:Chapter 2
00:11:17.760 : en:Chapter 3
00:18:01.289 : en:Chapter 4
00:21:05.389 : en:Chapter 5
00:25:45.085 : en:Chapter 6
00:29:01.990 : en:Chapter 7
00:34:01.706 : en:Chapter 8
00:37:10.603 : en:Chapter 9
00:43:43.037 : en:Chapter 10
00:48:33.786 : en:Chapter 11
00:52:16.675 : en:Chapter 12
00:55:48.095 : en:Chapter 13
00:59:50.128 : en:Chapter 14
01:05:28.758 : en:Chapter 15
01:09:06.476 : en:Chapter 16
01:15:03.499 : en:Chapter 17
01:21:30.719 : en:Chapter 18
01:25:12.691 : en:Chapter 19
01:27:39.129 : en:Chapter 20

pb.wtf



Скачать Семейка Крудс: Новоселье через торрент https://i114.fastpic.ru/big/2021/0103/c4/b39bbe6e72412309b95f828d027f3bc4.jpg Скачать фильм Семейка Крудс: Новоселье через торрент бесплантно в хорошем качестве Описание: Такие харизматичные герои как члены клана Крудс просто не в силах усидеть на месте. Они смело идут навстречу самым ... 9.7 10 6
Торрент: Зарегистрирован [2021-03-30 03:50] · скачан: 94 раз
Статус: √ проверено
Размер: 10.73 GB
Как cкачать? Как скачать Семейка Крудс: Новоселье через торрент | UTorrent

% Раздел Тема Автор DL S | L
Зарубежные Мультфильмы (BDRip 1080p, 720p, Blu-ray, BD-Remux) [ 4.32 GB ] Семейка Крудс: Новоселье / The Croods: A New Age [2020 мультфильм BDRip 720p] DUB [] +MVO [HDRezka Studio] bober100 Скачать
9 | 1
3D Мультфильмы [ 12.46 GB ] Семейка Крудс: Новоселье в 3Д / The Croods: A New Age 3D [2020 мультфильм семейны BDRip 1080p] OverUnder / Вертикальная стереопара serega768 Скачать
3 | 0
Ultra HD (UHD: 2K, 4K, 8K) [ 78.88 GB ] Семейка Крудс: Новоселье / The Croods: A New Age [2020 мультфильм UHD Blu-Ray 2160p ] DUB [] bober100 Скачать
2 | 0
Зарубежные Мультфильмы (BDRip 1080p, 720p, Blu-ray, BD-Remux) [ 23.81 GB ] Семейка Крудс: Новоселье / The Croods: A New Age [2020 мультфильм BD Remux 1080p] DUB [] +MVO [HDRezka Studio] bober100 Скачать
8 | 0
Фильмы с украинским озвучиванием [ 1.47 GB ] Семейка Крудс: Новоселье / Сімейка Крудсів: Нова Ера / The Croods: A New Age [2020 мультфильм WEB-DLRip] DUB [Line / UKR] bober100 Скачать
3 | 0
Иностранные мультфильмы [ 1.46 GB ] Семейка Крудс: Новоселье / The Croods: A New Age [2020 мультфильм BDRip] - [] Twi7ter Скачать
42 | 0
Иностранные мультфильмы [ 1.46 GB ] Семейка Крудс: Новоселье / The Croods: A New Age [2020 мультфильм BDRip] MVO [HDRezka Studio] bober100 Скачать
8 | 0

28-11-2019 20:33  

Отключить всю рекламу на сайте

30-03-2021 15:13 Семейка Крудс: Новоселье Скачать торрент  

ужас. Такое надругательство над мультом. Откуда такие оценки я хз, наверное, из-за тупого толерантного юмора на грани. Дубляж ужасный - нахрена на озвучку звать людей, которые нефига не умеют это делать - непонятно. Павел Воля, Нюша и подобные все испортили, которые просто не умеют нормально озвучивать мульты.pb.wtf



    Дорогой пользователь! Огромная просьба, поблагодарите релизера, оцените раздачу и оставьте свои комментарий, если Вы скачали Семейка Крудс: Новоселье через торрент бесплатно! Внесите свою лепту в развитие PiratBit!
    Комментировать посты могут только пользователи прошедшие не сложную регистрацию
    Показать сообщения:    

    Семейка Крудс: Новоселье через торрент
    Скачать бесплатно Семейка Крудс: Новоселье
    Семейка Крудс: Новоселье скачать торрент
    Семейка Крудс: Новоселье смотреть онлайн
    Cкачать фильм Семейка Крудс: Новоселье бесплатно
    Семейка Крудс: Новоселье скачать торрент в хорошем качестве
    Семейка Крудс: Новоселье смотреть онлайн бесплатно в хорошем качестве


    Вы не можете начинать темы
    Вы не можете отвечать на сообщения
    Вы не можете редактировать свои сообщения
    Вы не можете удалять свои сообщения
    Вы не можете голосовать в опросах
    Вы не можете прикреплять файлы к сообщениям
    Вы можете скачивать файлы