1 сезон

1 сезон

iTunes

1

КиноПоиск HD

Кинопоиск HD

iTunes

13

1 сезон

RePack

30

Ultimate

ВАЖНО

ИГРА 18+

pack

RePack

MK11
pack

Легкие деньги

RePack

jed

RePack

fifa19

RePack

RDR2

RePack

NEED FOR SPEED™ PAYBACK

4 сезон

9 сезон

Бесстыжие 9 сезон

Все сериалы

все сериалы на PB.wtf

RePack

FAR CRY 5
  
Magnet ссылка

Белый рояль (Мукадас Махмудов) [1968, комедия, DVB] pb.wtf

Белый рояль через торрент pb.wtf

Раздают: 2 [ 0 KB/s ]
Размер: 1.89 GB | Добавлен: 12 д. назад | Торрент скачан:4 раза
Скачать  

30-03-2021 19:33 Белый рояль Скачать торрент  

Белый рояль

Жанр: комедия
Год выпуска: 1968
Продолжительность: 01:12:17

Режиссёр: Мукадас Махмудов

В ролях: Сталина Азаматова, Нина Шацкая, Руслан Ахметов, Фрунзе Мкртчян, Марьям Якубова, Абдульхайр Касымов, Тамара Кокова, Алексей Смирнов, Акмурад Бяшимов, Б. Хамидов

Описание: Музыкальная комедия. В поисках уникального белого рояля в Душанбе приезжает музыковед Алла Арсеньева и знакомится с известным композитором Ю.Ю.Ахмедовым, его юным коллегой Шоди, очаровательной певицей Лолой и старушкой-молчуньей Розией-биби. Не найдя общего языка с грузчиками, она попадает в милицию и начинает активно сопротивляться каверзам судьбы. После ряда приключений рояль находится и благополучно перевозится в музей музыкальных инструментов.

Качество видео: DVB
Формат видео: MPEG-PS

Видео: MPEG2 Video, 720x576 (4:3), 25,000 кадров/сек, 3 500 Кбит/сек
Аудио: MPEG Audio, 48,0 КГц, 192 Кбит/сек, 2 канала
General
Complete name : D:\Torrent\Белый рояль\Белый рояль (MIR).mpg
Format : MPEG-PS
File size : 1.89 GiB
Duration : 1h 12mn
Overall bit rate mode : Variable
Overall bit rate : 3 739 Kbps

Video
ID : 224 (0xE0)
Format : MPEG Video
Format version : Version 2
Format profile : Main@Main
Format settings, BVOP : Yes
Format settings, Matrix : Custom
Duration : 1h 12mn
Bit rate mode : Variable
Bit rate : 3 500 Kbps
Width : 720 pixels
Height : 576 pixels
Display aspect ratio : 4:3
Frame rate : 25.000 fps
Standard : PAL
Color space : YUV
Chroma subsampling : 4:2:0
Bit depth : 8 bits
Scan type : Interlaced
Scan order : Top Field First
Compression mode : Lossy
Bits/(Pixel*Frame) : 0.338
Stream size : 1.75 GiB (93%)

Audio
ID : 192 (0xC0)
Format : MPEG Audio
Format version : Version 1
Format profile : Layer 2
Duration : 1h 12mn
Bit rate mode : Constant
Bit rate : 192 Kbps
Channel(s) : 2 channels
Sampling rate : 48.0 KHz
Compression mode : Lossy
Stream size : 99.3 MiB (5%)
pb.wtf



Скачать Белый рояль через торрент http://i50.fastpic.ru/big/2013/0810/97/855ddcfca5637cc30ccab2b6b21fdd97.jpg Скачать фильм Белый рояль через торрент бесплантно в хорошем качестве Описание: Музыкальная комедия. В поисках уникального белого рояля в Душанбе приезжает музыковед Алла Арсеньева и знакомится с известным ... 5 10 1
Торрент: Зарегистрирован [2021-03-30 19:33] · скачан: 4 раз
Статус: T временная
Размер: 1.89 GB
Как cкачать? Как скачать Белый рояль через торрент | UTorrent

28-11-2019 20:33  

Отключить всю рекламу на сайте

    Дорогой пользователь! Огромная просьба, поблагодарите релизера, оцените раздачу и оставьте свои комментарий, если Вы скачали Белый рояль через торрент бесплатно! Внесите свою лепту в развитие PiratBit!
    Комментировать посты могут только пользователи прошедшие не сложную регистрацию
    Показать сообщения:    

    Белый рояль через торрент
    Скачать бесплатно Белый рояль
    Белый рояль скачать торрент
    Белый рояль смотреть онлайн
    Cкачать фильм Белый рояль бесплатно
    Белый рояль скачать торрент в хорошем качестве
    Белый рояль смотреть онлайн бесплатно в хорошем качестве


    Вы не можете начинать темы
    Вы не можете отвечать на сообщения
    Вы не можете редактировать свои сообщения
    Вы не можете удалять свои сообщения
    Вы не можете голосовать в опросах
    Вы не можете прикреплять файлы к сообщениям
    Вы можете скачивать файлы