1 сезон

1 сезон

iTunes

1

КиноПоиск HD

Кинопоиск HD

iTunes

13

1 сезон

RePack

30

Ultimate

ВАЖНО

ИГРА 18+

pack

RePack

MK11
pack

Легкие деньги

RePack

jed

RePack

fifa19

RePack

RDR2

RePack

NEED FOR SPEED™ PAYBACK

4 сезон

9 сезон

Бесстыжие 9 сезон

Все сериалы

все сериалы на PB.wtf

RePack

FAR CRY 5
  
Magnet ссылка

Охотник на монстров / Monster Hunter (Пол У. С. Андерсон) [2020, Фэнтези, боевик, приключения, BDRip 1080p] [DUB] (Лицензия) pb.wtf

Охотник на монстров через торрент pb.wtf

Раздают: 16 [ 2 MB/s ]
Размер: 12.35 GB | Добавлен: 4 д. назад | Торрент скачан:73 раза
Скачать  

31-03-2021 15:55 Охотник на монстров Скачать торрент  

Охотник на монстров / Monster Hunter

Год выхода: 2020
Жанр: Фэнтези, боевик, приключения
Страна: США, Китай, Германия, Япония
Студия: Capcom Company, Constantin Film, Impact Pictures, Tencent Pictures, Toho Company
Продолжительность: 01:43:08
Перевод: Дублированный | Лицензия
Субтитры: Русские (Forced, Full), Английские (Forced, Full, SDH)

Режиссер: Пол У. С. Андерсон

В ролях: Милла Йовович, Тони Джа, Рон Перлман, Ти-Ай, Диего Бонета, Миган Гуд, Джош Хелман, Джин О-Юн, Хирона Ямадзаки, Янник Шуманн

О фильме: Параллельно нашему миру существует иной — мир, где правят крайне опасные и наделенные невероятной силой монстры. Именно сюда через пространственный портал попадают лейтенант Артемис и ее отряд элитных бойцов. И теперь им предстоит проверить себя на прочность перед лицом невиданной ранее угрозы. Пытаясь выжить и найти дорогу домой, Артемис объединяет силы с местным Охотником, который научился выживать в этих враждебных землях. Вместе героям предстоит вступить в схватку с ужасающими монстрами, не знающими страха и жалости.

rating

Качество: BDRip 1080p
Формат: MKV
Видео: MPEG-4 AVC, 1920x804, 15.9 Mbit/s, 23.976 fps
Аудио #01: 48 kHz, AC3, 5.1, 640 Kbps | Дублированный | RUS |
Аудио #02: 48 kHz, AC3, 5.1, 640 Kbps | Оригинал | ENG |
General
General
Unique ID : 94425786184025782521972291656141921422 (0x4709BEB2A537AA1590B81FD7CEAE5C8E)
Complete name : F:VideoMonster.Hunter.2020.Lic.BDRip.1080p.seleZen.mkv
Format : Matroska
Format version : Version 4
File size : 12.3 GiB
Duration : 1 h 43 min
Overall bit rate : 17.1 Mb/s
Movie name : Monster Hunter 2020 from seleZen
Encoded date : UTC 2021-04-07 15:10:55
Writing application : mkvmerge v55.0.0 ('Waiting For Space') 64-bit
Writing library : libebml v1.4.2 + libmatroska v1.6.4

Video
ID : 1
Format : AVC
Format/Info : Advanced Video Codec
Format profile : High@L4.1
Format settings : CABAC / 5 Ref Frames
Format settings, CABAC : Yes
Format settings, Reference : 5 frames
Codec ID : V_MPEG4/ISO/AVC
Duration : 1 h 43 min
Bit rate : 15.9 Mb/s
Width : 1 920 pixels
Height : 804 pixels
Display aspect ratio : 2.40:1
Frame rate mode : Constant
Frame rate : 23.976 (24000/1001) FPS
Color space : YUV
Chroma subsampling : 4:2:0
Bit depth : 8 bits
Scan type : Progressive
Bits/(Pixel*Frame) : 0.428
Stream size : 11.4 GiB (93%)
Title : playHD
Writing library : x264 core 160 r3000+53 e3e4c3e t_mod_New [(8 & 10)-bit@all X86_64]
Encoding settings : cabac=1 / ref=5 / deblock=1:-3:-3 / analyse=0x3:0x133 / me=umh / subme=10 / psy=1 / fade_compensate=0.00 / psy_rd=1.00:0.00 / mixed_ref=1 / me_range=32 / chroma_me=1 / trellis=2 / 8x8dct=1 / cqm=0 / deadzone=21,11 / fast_pskip=0 / chroma_qp_offset=-2 / threads=24 / lookahead_threads=4 / sliced_threads=0 / nr=0 / decimate=0 / interlaced=0 / bluray_compat=0 / constrained_intra=0 / fgo=0 / bframes=8 / b_pyramid=2 / b_adapt=2 / b_bias=0 / direct=3 / weightb=1 / open_gop=0 / weightp=2 / keyint=250 / keyint_min=23 / scenecut=40 / intra_refresh=0 / rc=crf / mbtree=0 / crf=16.0000 / qcomp=0.60 / qpmin=0:0:0 / qpmax=69:69:69 / qpstep=4 / ip_ratio=1.30 / pb_ratio=1.20 / aq=3:0.85 / aq-sensitivity=10.00 / aq-factor=1.00:1.00:1.00 / aq2=0 / aq3=0
Language : English
Default : Yes
Forced : No

Audio #1
ID : 2
Format : AC-3
Format/Info : Audio Coding 3
Commercial name : Dolby Digital
Codec ID : A_AC3
Duration : 1 h 43 min
Bit rate mode : Constant
Bit rate : 640 kb/s
Channel(s) : 6 channels
Channel layout : L R C LFE Ls Rs
Sampling rate : 48.0 kHz
Frame rate : 31.250 FPS (1536 SPF)
Compression mode : Lossy
Stream size : 472 MiB (4%)
Title : Dub [License]
Language : Russian
Service kind : Complete Main
Default : Yes
Forced : Yes

Audio #2
ID : 3
Format : AC-3
Format/Info : Audio Coding 3
Commercial name : Dolby Digital
Codec ID : A_AC3
Duration : 1 h 43 min
Bit rate mode : Constant
Bit rate : 640 kb/s
Channel(s) : 6 channels
Channel layout : L R C LFE Ls Rs
Sampling rate : 48.0 kHz
Frame rate : 31.250 FPS (1536 SPF)
Compression mode : Lossy
Stream size : 472 MiB (4%)
Title : Original
Language : English
Service kind : Complete Main
Default : No
Forced : No

Text #1
ID : 4
Format : UTF-8
Codec ID : S_TEXT/UTF8
Codec ID/Info : UTF-8 Plain Text
Duration : 1 h 41 min
Bit rate : 0 b/s
Count of elements : 10
Stream size : 536 Bytes (0%)
Title : Forced
Language : Russian
Default : Yes
Forced : Yes

Text #2
ID : 5
Format : UTF-8
Codec ID : S_TEXT/UTF8
Codec ID/Info : UTF-8 Plain Text
Duration : 1 h 41 min
Bit rate : 27 b/s
Count of elements : 490
Stream size : 20.3 KiB (0%)
Title : Full
Language : Russian
Default : No
Forced : No

Text #3
ID : 6
Format : UTF-8
Codec ID : S_TEXT/UTF8
Codec ID/Info : UTF-8 Plain Text
Duration : 1 h 32 min
Bit rate : 30 b/s
Count of elements : 521
Stream size : 20.9 KiB (0%)
Title : Full [Enigma]
Language : Russian
Default : No
Forced : No

Text #4
ID : 7
Format : UTF-8
Codec ID : S_TEXT/UTF8
Codec ID/Info : UTF-8 Plain Text
Duration : 1 h 33 min
Bit rate : 29 b/s
Count of elements : 502
Stream size : 20.3 KiB (0%)
Title : Full [FOCS]
Language : Russian
Default : No
Forced : No

Text #5
ID : 8
Format : UTF-8
Codec ID : S_TEXT/UTF8
Codec ID/Info : UTF-8 Plain Text
Duration : 19 min 24 s
Bit rate : 0 b/s
Count of elements : 4
Stream size : 112 Bytes (0%)
Title : Forced
Language : English
Default : No
Forced : No

Text #6
ID : 9
Format : UTF-8
Codec ID : S_TEXT/UTF8
Codec ID/Info : UTF-8 Plain Text
Duration : 1 h 29 min
Bit rate : 19 b/s
Count of elements : 498
Stream size : 12.7 KiB (0%)
Title : Full
Language : English
Default : No
Forced : No

Text #7
ID : 10
Format : UTF-8
Codec ID : S_TEXT/UTF8
Codec ID/Info : UTF-8 Plain Text
Duration : 1 h 35 min
Bit rate : 26 b/s
Count of elements : 814
Stream size : 18.6 KiB (0%)
Title : SDH
Language : English
Default : No
Forced : No

Menu
00:00:00.000 : en:Chapter 01
00:04:59.424 : en:Chapter 02
00:10:28.211 : en:Chapter 03
00:15:26.342 : en:Chapter 04
00:21:12.938 : en:Chapter 05
00:24:53.492 : en:Chapter 06
00:31:53.328 : en:Chapter 07
00:35:58.698 : en:Chapter 08
00:41:10.301 : en:Chapter 09
00:48:05.007 : en:Chapter 10
00:54:10.080 : en:Chapter 11
01:01:36.109 : en:Chapter 12
01:06:18.516 : en:Chapter 13
01:13:21.689 : en:Chapter 14
01:23:01.727 : en:Chapter 15
01:31:21.601 : en:Chapter 16
01:35:39.734 : en:Chapter 17
скриншот  скриншот  скриншот  скриншот  скриншот  
pb.wtf



Скачать Охотник на монстров через торрент https://a.radikal.ru/a17/2103/4f/1f77370e4aa7.jpg Скачать фильм Охотник на монстров через торрент бесплантно в хорошем качестве О фильме: Параллельно нашему миру существует иной — мир, где правят крайне опасные и наделенные невероятной силой монстры. Именно сюда ... 9.8 10 18
Info! Золотая раздача, скачанное не засчитывается.
Торрент: Зарегистрирован [2021-04-07 16:11] · скачан: 73 раз
Статус: √ проверено
Размер: 12.35 GB
Как cкачать? Как скачать Охотник на монстров через торрент | UTorrent

% Раздел Тема Автор DL S | L
Фильмы 2019-2020 [DVDrip, WEB-DLRip, HDrip] (DUB, MVO) [ 1.46 GB ] Охотник на монстров / Monster Hunter [2020 BDRip] - [] Twi7ter Скачать
60 | 5
Фильмы [HD 720p, 1080p] (Хороший звук DUB, MVO) [ 5.4 GB ] Охотник на монстров / Monster Hunter [2020 BDRip 720p] () Russian Mafia Скачать
18 | 0
? Ultra HD (UHD: 2K, 4K, 8K) — видео сверхвысокой чёткости [ 40.39 GB ] Охотник на монстров / Monster Hunter [2020 UHD BDRemux 1080p] () Russian Mafia Скачать
3 | 0
Фильмы [HD 720p, 1080p] (Хороший звук DUB, MVO) [ 10.38 GB ] Охотник на монстров / Monster Hunter [2020 BDRip 1080p] [DUB+MVO+2x AVO] Russian Mafia Скачать
10 | 1
Фильмы (Blu-ray, BD-Remux, HDDVD) [ 20.88 GB ] Охотник на монстров / Monster Hunter [2020 BDRemux 1080p] () Russian Mafia Скачать
4 | 0
Фильмы 2019-2020 [DVDrip, WEB-DLRip, HDrip] (DUB, MVO) [ 2.05 GB ] Охотник на монстров / Monster Hunter [2020 HDRip-AVC] от MediaBit Lithuania Скачать
18 | 0
Ultra HD (UHD: 2K, 4K, 8K) — видео сверхвысокой чёткости [ 11.46 GB ] Охотник на монстров / Monster Hunter [2020 WEB-DL 2160p] AVO [BadBajo] bober100 Скачать
11 | 0


Последний раз редактировалось: Russian Mafia (2021-04-07 16:11), всего редактировалось 2 раз(а)

28-11-2019 20:33  

Отключить всю рекламу на сайте

31-03-2021 17:42 Охотник на монстров Скачать торрент  

У меня у одного рассинхрон?!pb.wtf



01-04-2021 01:57 Охотник на монстров Скачать торрент  

alexdragon писал(а):

У меня у одного рассинхрон?!

нет, на 0,25 быстрее нужно поменять. а вообще в фильме рассинхрон разный. то 0,25, то 0,30 и ещё кадры прошлые показываютсяpb.wtf



01-04-2021 03:53 Охотник на монстров Скачать торрент  

еле досмотрел, сюжет вообще слабый. в игру не играл, но фильм кажется кардинально отличается.pb.wtf



01-04-2021 06:05 Охотник на монстров Скачать торрент  

торрент обновлен устранён рассинхронpb.wtf



08-04-2021 05:06 Охотник на монстров Скачать торрент  

мила фильм не вытянула, потому что сюжета в фильме нет, а то что подают как сюжет- какая то скомканная нелепая дичь не к месту и непонятно зачем о ней вообще говорят.
к сожалению, вместо эпичного экшона получился какой то слепок третьесортной картины, весь бюджет которой видимо упал на милу и програмеров спецэффектовpb.wtf



    Дорогой пользователь! Огромная просьба, поблагодарите релизера, оцените раздачу и оставьте свои комментарий, если Вы скачали Охотник на монстров через торрент бесплатно! Внесите свою лепту в развитие PiratBit!
    Комментировать посты могут только пользователи прошедшие не сложную регистрацию
    Показать сообщения:    

    Охотник на монстров через торрент
    Скачать бесплатно Охотник на монстров
    Охотник на монстров скачать торрент
    Охотник на монстров смотреть онлайн
    Cкачать фильм Охотник на монстров бесплатно
    Охотник на монстров скачать торрент в хорошем качестве
    Охотник на монстров смотреть онлайн бесплатно в хорошем качестве


    Вы не можете начинать темы
    Вы не можете отвечать на сообщения
    Вы не можете редактировать свои сообщения
    Вы не можете удалять свои сообщения
    Вы не можете голосовать в опросах
    Вы не можете прикреплять файлы к сообщениям
    Вы можете скачивать файлы