1 сезон

1 сезон

iTunes

1

КиноПоиск HD

Кинопоиск HD

iTunes

13

1 сезон

RePack

30

Ultimate

ВАЖНО

ИГРА 18+

pack

RePack

MK11
pack

Легкие деньги

RePack

jed

RePack

fifa19

RePack

RDR2

RePack

NEED FOR SPEED™ PAYBACK

4 сезон

9 сезон

Бесстыжие 9 сезон

Все сериалы

все сериалы на PB.wtf

RePack

FAR CRY 5
  
Magnet ссылка

Три богатыря и принцесса Египта (Константин Феоктистов) [2017 г., мультфильм, приключения, семейный, фэнтези, BDRip 720p / 60 FPS, Не требуется Русский] от R.G. HD-Films pb.wtf

Три богатыря и принцесса Египта через торрент pb.wtf

Раздают: 6 [ 0 KB/s ]
Размер: 2.83 GB | Добавлен: 9 д. назад | Торрент скачан:24 раза
Скачать  

02-04-2021 16:27 Три богатыря и принцесса Египта Скачать торрент  

Три богатыря и принцесса Египта
Год выпуска: 2017
Страна: Россия
Жанр: мультфильм, приключения, семейный, фэнтези
Продолжительность: 01:11:45
Перевод: Не требуется Русский

Режиссер: Константин Феоктистов

Бюджет: 174 464 395 руб
Премьера в мире: 29 декабря 2017

rating

Роли озвучивали: Олег Куликович, Валерий Соловьев, Д. Быковский-Ромашов, Сергей Маковецкий, Дмитрий Высоцкий, Александр Быковский, Елена Шульман

Описание: В новогоднюю ночь, в то время, как Князь готовится произнести торжественную речь, а Юлий распаковывает подарки и следит за приготовлением праздничного стола, богатыри едут в гости к Алёше и встречают там странного товарища по имени Дурило. Оказывается, это тринадцатый месяц, который никому особенно не нужен, и который пытается осуществить своё заветное желание — стать самым главным месяцем в году. Только и надо ему, что притвориться Дедом Морозом, показать доверчивому Алёше пару фокусов, подружиться с богатырями и оказаться в Египте — стране фараонов и древних пирамид. А дальше — пирамиды, заклинание, Древний огонь — и дело в шляпе! Но не так-то просто осуществить своё коварное желание, когда на пути у тебя встают не только три богатыря, но и их жёны, Князь и Юлий, Змей Горыныч и Дед Мороз и даже — сама принцесса Нефертити!

Качество: BDRip 720p / 60 FPS
Формат: MKV
Видео кодек: H.264
Аудио кодек: AC3
Видео: x264, 1280 x 720 ( 16:9 ), 5254 kbps, 60,000 fps, ( 0.095 bpp)
Аудио#1: Русский, AC-3, 48.0 KHz, 6 ch, 384 Kbps
Релиз от: Автор рипа: slaventi-69
Общее
Уникальный идентификатор : 83794533848015258596041498804664140564 (0x3F0A3D7D2EC4AC3D6370FE35A7AC0314)
Полное имя : F:\Tri.Bogatyrya.I.Printcessa.Egipta.(2017).BDRip.720p.(60 Fps).mkv
Формат : Matroska
Версия формата : Version 4
Размер файла : 2,83 Гбайт
Продолжительность : 1 ч. 11 м.
Общий поток : 5642 Кбит/сек
Название фильма : Три богатыря и принцесса Египта (2017) BDRip 720p (60 Fps)
Дата кодирования : UTC 2021-03-03 17:20:37
Программа кодирования : mkvmerge v52.0.0 ('Secret For The Mad') 64-bit
Библиотека кодирования : libebml v1.4.1 + libmatroska v1.6.2

Видео
Идентификатор : 1
Формат : AVC
Формат/Информация : Advanced Video Codec
Профиль формата : High@L4.1
Настройки формата : CABAC / 9 Ref Frames
Параметр CABAC формата : Да
Параметр RefFrames формата : 9 кадров
Идентификатор кодека : V_MPEG4/ISO/AVC
Продолжительность : 1 ч. 11 м.
Битрейт : 5254 Кбит/сек
Ширина : 1280 пикселей
Высота : 720 пикселей
Соотношение сторон : 16:9
Режим частоты кадров : Постоянный
Частота кадров : 60,000 кадров/сек
Цветовое пространство : YUV
Субдискретизация насыщенности : 4:2:0
Битовая глубина : 8 бит
Тип развёртки : Прогрессивная
Бит/(Пиксели*Кадры) : 0.095
Размер потока : 2,63 Гбайт (93%)
Заголовок : slaventi-69 ( R.G. HD-Films | 60 fps )
Библиотека кодирования : x264 core 157 r2958 57baac4
Настройки программы : cabac=1 / ref=9 / deblock=1:0:0 / analyse=0x3:0x133 / me=umh / subme=9 / psy=1 / psy_rd=1.00:0.00 / mixed_ref=1 / me_range=32 / chroma_me=1 / trellis=2 / 8x8dct=1 / cqm=0 / deadzone=21,11 / fast_pskip=0 / chroma_qp_offset=-2 / threads=10 / lookahead_threads=4 / sliced_threads=0 / nr=0 / decimate=1 / interlaced=0 / bluray_compat=0 / constrained_intra=0 / bframes=5 / b_pyramid=2 / b_adapt=2 / b_bias=0 / direct=2 / weightb=1 / open_gop=0 / weightp=2 / keyint=600 / keyint_min=60 / scenecut=40 / intra_refresh=0 / rc=crf / mbtree=0 / crf=14.0 / qcomp=0.60 / qpmin=0 / qpmax=69 / qpstep=4 / ip_ratio=1.40 / pb_ratio=1.30 / aq=1:1.00
Язык : Russian
Default : Да
Forced : Нет

Аудио
Идентификатор : 2
Формат : AC-3
Формат/Информация : Audio Coding 3
Коммерческое название : Dolby Digital
Идентификатор кодека : A_AC3
Продолжительность : 1 ч. 11 м.
Вид битрейта : Постоянный
Битрейт : 384 Кбит/сек
Каналы : 6 каналов
Channel layout : L R C LFE Ls Rs
Частота : 48,0 КГц
Частота кадров : 31,250 кадров/сек (1536 SPF)
Битовая глубина : 16 бит
Метод сжатия : С потерями
Размер потока : 197 Мбайт (7%)
Заголовок : Лицензия
Язык : Russian
ServiceKind/String : Complete Main
Default : Да
Forced : Нет

Меню
00:00:00.000 : :Chapter 01
00:05:17.041 : :Chapter 02
00:11:43.625 : :Chapter 03
00:18:26.208 : :Chapter 04
00:22:34.500 : :Chapter 05
00:29:53.041 : :Chapter 06
00:37:39.083 : :Chapter 07
00:44:21.250 : :Chapter 08
00:50:17.541 : :Chapter 09
00:56:49.416 : :Chapter 10
01:01:27.625 : :Chapter 11
01:05:53.666 : :Chapter 12
01:11:45.666 : :Chapter 13

Просьба к переливающим на другие сайты, в оформлении указывайте пожалуйста авторство группы R.G. HD-Films pb.wtf



Скачать Три богатыря и принцесса Египта через торрент http://d.radikal.ru/d29/1803/79/e0ea1e509f34.png Скачать фильм Три богатыря и принцесса Египта через торрент бесплантно в хорошем качестве Описание: В новогоднюю ночь, в то время, как Князь готовится произнести торжественную речь, а Юлий распаковывает подарки и следит за ... 10 10 3
Торрент: Зарегистрирован [2021-04-02 16:27] · скачан: 24 раз
Статус: √ проверено
Размер: 2.83 GB
Как cкачать? Как скачать Три богатыря и принцесса Египта через торрент | UTorrent

28-11-2019 20:33  

Отключить всю рекламу на сайте

    Дорогой пользователь! Огромная просьба, поблагодарите релизера, оцените раздачу и оставьте свои комментарий, если Вы скачали Три богатыря и принцесса Египта через торрент бесплатно! Внесите свою лепту в развитие PiratBit!
    Комментировать посты могут только пользователи прошедшие не сложную регистрацию
    Показать сообщения:    

    Три богатыря и принцесса Египта через торрент
    Скачать бесплатно Три богатыря и принцесса Египта
    Три богатыря и принцесса Египта скачать торрент
    Три богатыря и принцесса Египта смотреть онлайн
    Cкачать фильм Три богатыря и принцесса Египта бесплатно
    Три богатыря и принцесса Египта скачать торрент в хорошем качестве
    Три богатыря и принцесса Египта смотреть онлайн бесплатно в хорошем качестве


    Вы не можете начинать темы
    Вы не можете отвечать на сообщения
    Вы не можете редактировать свои сообщения
    Вы не можете удалять свои сообщения
    Вы не можете голосовать в опросах
    Вы не можете прикреплять файлы к сообщениям
    Вы можете скачивать файлы