1 сезон

1 сезон

iTunes

1

КиноПоиск HD

Кинопоиск HD

iTunes

13

1 сезон

RePack

30

Ultimate

ВАЖНО

ИГРА 18+

pack

RePack

MK11
pack

Легкие деньги

RePack

jed

RePack

fifa19

RePack

RDR2

RePack

NEED FOR SPEED™ PAYBACK

4 сезон

9 сезон

Бесстыжие 9 сезон

Все сериалы

все сериалы на PB.wtf

RePack

FAR CRY 5
  
Magnet ссылка

Вдовий маяк / Widow's Point (Грег Ламберсон) [2019, Ужасы, триллер, драма, детектив, WEB-DLRip-AVC] MVO [IVI] от MediaBit pb.wtf

Вдовий маяк через торрент pb.wtf

Раздают: 9 [ 173 KB/s ]
Размер: 2.05 GB | Добавлен: 9 д. назад | Торрент скачан:88 раз
Скачать  

02-04-2021 16:46 Вдовий маяк Скачать торрент  


Вдовий маяк / Widow's Point
Информация о фильме:
Название: Вдовий маяк
Оригинальное название: Widow's Point
Год выхода: 2019
Жанр: Ужасы, триллер, драма, детектив
Режиссер: Грег Ламберсон

В ролях: Крэйг Шеффер, КейтЛинн Ньюберри, Доминик Люонго, Каелин Ламберсон, Джон Ренна, Ричард Саттервайт, Майкл Турбер, Уиллоу Анвар, Ким Пьяцца, Пол МакГиннис

Описание: Чтобы привлечь внимание публики к своей новой книге, писатель проводит выходные на маяке с привидениями, где и становится мишенью сверхъестественных сил.



Страна: США
Студия: Kwakutl Films
Продолжительность: 01:27:47
Перевод: Профессиональный (многоголосый, закадровый) - IVI



Информация о файле:
Кодек: AVC
Формат: MKV
Качество: WEB-DLRip-AVC
Видео: MPEG-4 AVC, 1024x574, 23.976 fps, 2573 kbps
Аудио RU: AC3, 6 ch, 48 kHz, 384 kbps
Аудио EN: AC3, 6 ch, 48 kHz, 384 kbps
Субтитры: English
Навигация по главам: Да

x264 info: frame I:833 Avg QP:10.81 size:100849
x264 info: frame P:32026 Avg QP:13.92 size: 29708
x264 info: frame B:93439 Avg QP:16.63 size: 7046
General
Unique ID : 29472857824377543523747113749940306248 (0x162C4414D838E937A76502268FAC8148)
Complete name : D:uTorrentРипы_от_wolf1245_MediaBitWidowsPoint.2019.MVO.IVI.WEB-DLRip-AVC.[wolf1245.MediaBit]-.mkv
Format : Matroska
Format version : Version 4
File size : 2.05 GiB
Duration : 1 h 27 min
Overall bit rate : 3 342 kb/s
Movie name : WidowsPoint.2019.MVO.IVI.WEB-DLRip-AVC.[wolf1245.MediaBit]
Encoded date : UTC 2021-04-02 16:25:51
Writing application : mkvmerge v55.0.0 ('Waiting For Space') 64-bit
Writing library : libebml v1.4.2 + libmatroska v1.6.4
Video
ID : 1
Format : AVC
Format/Info : Advanced Video Codec
Format profile : High@L4.1
Format settings : CABAC / 12 Ref Frames
Format settings, CABAC : Yes
Format settings, Reference frames : 12 frames
Codec ID : V_MPEG4/ISO/AVC
Duration : 1 h 27 min
Bit rate : 2 573 kb/s
Width : 1 024 pixels
Height : 574 pixels
Display aspect ratio : 16:9
Frame rate mode : Constant
Frame rate : 23.976 (24000/1001) FPS
Color space : YUV
Chroma subsampling : 4:2:0
Bit depth : 8 bits
Scan type : Progressive
Bits/(Pixel*Frame) : 0.183
Stream size : 1.58 GiB (77%)
Title : [wolf1245.MediaBit]
Writing library : x264 core 157 r2958 57baac4
Encoding settings : cabac=1 / ref=12 / deblock=1:0:0 / analyse=0x3:0x133 / me=umh / subme=10 / psy=1 / psy_rd=1.00:0.02 / mixed_ref=1 / me_range=32 / chroma_me=1 / trellis=2 / 8x8dct=1 / cqm=0 / deadzone=21,11 / fast_pskip=1 / chroma_qp_offset=-3 / threads=10 / lookahead_threads=2 / sliced_threads=0 / nr=0 / decimate=1 / interlaced=0 / bluray_compat=0 / constrained_intra=0 / bframes=10 / b_pyramid=2 / b_adapt=2 / b_bias=0 / direct=3 / weightb=1 / open_gop=0 / weightp=2 / keyint=240 / keyint_min=24 / scenecut=40 / intra_refresh=0 / rc_lookahead=60 / rc=2pass / mbtree=1 / bitrate=2573 / ratetol=1.0 / qcomp=0.60 / qpmin=0 / qpmax=69 / qpstep=4 / cplxblur=20.0 / qblur=0.5 / vbv_maxrate=50000 / vbv_bufsize=62500 / nal_hrd=none / filler=0 / ip_ratio=1.40 / aq=1:0.80
Language : English
Default : Yes
Forced : No
Color range : Limited
Color primaries : BT.709
Transfer characteristics : BT.709
Matrix coefficients : BT.709
Audio #1
ID : 2
Format : AC-3
Format/Info : Audio Coding 3
Commercial name : Dolby Digital
Codec ID : A_AC3
Duration : 1 h 27 min
Bit rate mode : Constant
Bit rate : 384 kb/s
Channel(s) : 6 channels
Channel layout : L R C LFE Ls Rs
Sampling rate : 48.0 kHz
Frame rate : 31.250 FPS (1536 SPF)
Bit depth : 32 bits
Compression mode : Lossy
Stream size : 241 MiB (11%)
Title : MVO | IVI
Language : Russian
Service kind : Complete Main
Default : Yes
Forced : No
Audio #2
ID : 3
Format : AC-3
Format/Info : Audio Coding 3
Commercial name : Dolby Digital
Codec ID : A_AC3
Duration : 1 h 27 min
Bit rate mode : Constant
Bit rate : 384 kb/s
Channel(s) : 6 channels
Channel layout : L R C LFE Ls Rs
Sampling rate : 48.0 kHz
Frame rate : 31.250 FPS (1536 SPF)
Bit depth : 32 bits
Compression mode : Lossy
Stream size : 241 MiB (11%)
Title : Original
Language : English
Service kind : Complete Main
Default : No
Forced : No
Text
ID : 4
Format : UTF-8
Codec ID : S_TEXT/UTF8
Codec ID/Info : UTF-8 Plain Text
Duration : 1 h 27 min
Bit rate : 42 b/s
Count of elements : 1047
Stream size : 27.2 KiB (0%)
Language : English
Default : No
Forced : No
Menu
00:00:00.000 : :1
00:01:57.000 : :2
00:12:09.000 : :3
00:19:56.000 : :4
00:27:19.000 : :5
00:37:40.000 : :6
00:45:13.000 : :7
00:54:54.000 : :8
01:05:41.000 : :9
01:14:58.000 : :10
01:26:04.000 : :11
Релиз от: &
Автор релиза:
pb.wtf



Скачать Вдовий маяк через торрент https://i114.fastpic.ru/big/2021/0402/f2/a49aaac44e3150139377dff7a50c32f2.jpg Скачать фильм Вдовий маяк через торрент бесплантно в хорошем качестве Описание: Чтобы привлечь внимание публики к своей новой книге, писатель проводит выходные на маяке с привидениями, где и становится ... 10 10 3
Торрент: Зарегистрирован [2021-04-02 16:46] · скачан: 88 раз
Статус: √ проверено
Размер: 2.05 GB
Как cкачать? Как скачать Вдовий маяк через торрент | UTorrent

28-11-2019 20:33  

Отключить всю рекламу на сайте

06-04-2021 04:45 Вдовий маяк Скачать торрент  

Второсортный бред..шлак..не стоит просмотра..pb.wtf



    Дорогой пользователь! Огромная просьба, поблагодарите релизера, оцените раздачу и оставьте свои комментарий, если Вы скачали Вдовий маяк через торрент бесплатно! Внесите свою лепту в развитие PiratBit!
    Комментировать посты могут только пользователи прошедшие не сложную регистрацию
    Показать сообщения:    

    Вдовий маяк через торрент
    Скачать бесплатно Вдовий маяк
    Вдовий маяк скачать торрент
    Вдовий маяк смотреть онлайн
    Cкачать фильм Вдовий маяк бесплатно
    Вдовий маяк скачать торрент в хорошем качестве
    Вдовий маяк смотреть онлайн бесплатно в хорошем качестве


    Вы не можете начинать темы
    Вы не можете отвечать на сообщения
    Вы не можете редактировать свои сообщения
    Вы не можете удалять свои сообщения
    Вы не можете голосовать в опросах
    Вы не можете прикреплять файлы к сообщениям
    Вы можете скачивать файлы