Присоединяйтесь к нам в Telegram!, здесь всегда актуальный адрес сайта, оперативная поддержка и многое другое!!

>

5.9

iTunes

7.4

iTunes

9.4

1 сезон

1

7.4

2 сезон

7.2

iTunes

7.3

1 сезон

13

6.1

iTunes

8.3

GOG

30

ULTIMATE

pack

9.9

Лицензия

ВАЖНО

ИГРА 18+

pack

7.3

RePack

MK11

7.7

RePack

jed

7.8

RePack

fifa19

8.5

RePack

RDR2

RePack

NEED FOR SPEED™ PAYBACK

5 сезон

9 сезон

Бесстыжие 9 сезон

Все сериалы

все сериалы на PB.wtf

RePack

FAR CRY 5

Anonymous, добрый вечер, мы катастрофически не успеваем собрать деньги на оплату серверов, помогите нам пожалуйста 5,10,15р., для нас важна любая помощь . В качестве благодарности мы отключим Вам всю рекламу на сайте (укажите свой ник в строку Ваше имя)!

×
  
Magnet ссылка

Поступь хаоса / Chaos Walking (Даг Лайман) [2021, приключения, фантастика, HDRip-AVC] DUB, MVO [iTunes, HDRezka Studio] от MediaBit pb.wtf

Поступь хаоса через торрент pb.wtf

Размер: 2.18 GB | Добавлен: 6 мес. назад | Торрент скачан:91 раз
Смотреть онлайн Поступь хаоса | Скачать    Ребята, помогите собрать деньги на оплату серверов!!!

04-04-2021 06:57 Поступь хаоса Скачать торрент  


Поступь хаоса / Chaos Walking
Информация о фильме:
Название: Поступь хаоса
Оригинальное название: Chaos Walking
Год выхода: 2021
Жанр: приключения, фантастика
Режиссер: Даг Лайман

В ролях: Том Холланд, Мадс Миккельсен, Дэйзи Ридли, Рэй Маккиннон, Демиан Бичир, Ник Джонас, Дэвид Ойелоуо, Синтия Эриво, Курт Саттер, Олунике Аделийи, Оскар Хаэнада, Милен Робик, Бетани Энн Линд, Бобби Эрнандес, Харрисон Остерфилд и др.

Описание: 2257 год. Тодд обнаруживает загадочную девушку Виолу, потерпевшую крушение на его родной планете, где женщины давно исчезли, а все мужчины страдают от вируса — существуют в пространстве бесконечных мыслеобразов, которое называют шумом: рядом с другим человеком совершенно невозможно утаить свои воспоминания и мысли. В такой агрессивной реальности Виоле, чьи чувства остаются скрытыми, не выжить без помощи Тодда. Вместе им предстоит отправиться в опасное путешествие и столкнуться с самыми темными тайнами планеты.



Страна: США, Канада, Гонконг
Студия: Lionsgate, Quadrant Pictures
Продолжительность: 01:48:53
Перевод # 1: Профессиональный (многоголосый, закадровый) - HDRezka Studio
Перевод # 2: Дублированный - iTunes



Информация о файле:
Кодек: AVC
Формат: MKV
Качество: HDRip-AVC
Видео: MPEG-4 AVC, 1024x428, 23.976 fps, 1590 kbps
Аудио RU: AC3, 6 ch, 48 kHz, 384 kbps | iTunes
Аудио RU: AC3, 6 ch, 48 kHz, 448 kbps | HDRezka Studio
Аудио EN: AC3, 6 ch, 48 kHz, 448 kbps
Субтитры: Русские (Forced, Full), английские

x264 info: frame I:1119 Avg QP:14.79 size: 63238
x264 info: frame P:41467 Avg QP:19.47 size: 17680
x264 info: frame B:114086 Avg QP:22.30 size: 4229
General
Unique ID : 117045662526457179862949997897182232211 (0x580E2CB4AF5DCE8C845A0482C4823E93)
Complete name : D:uTorrentРипы_от_wolf1245_MediaBitChaos Walking.2021.MVO.DUB.iTunes.HDRezka.HDRip-AVC.[wolf1245.MediaBit].mkv
Format : Matroska
Format version : Version 4
File size : 2.18 GiB
Duration : 1 h 48 min
Overall bit rate : 2 871 kb/s
Movie name : Chaos Walking.2021.MVO.DUB.iTunes.HDRezka.HDRip-AVC.[wolf1245.MediaBit]
Encoded date : UTC 2021-05-15 19:23:18
Writing application : mkvmerge v56.1.0 ('My Friend') 64-bit
Writing library : libebml v1.4.2 + libmatroska v1.6.4
Video
ID : 1
Format : AVC
Format/Info : Advanced Video Codec
Format profile : High@L4.1
Format settings : CABAC / 14 Ref Frames
Format settings, CABAC : Yes
Format settings, Reference frames : 14 frames
Codec ID : V_MPEG4/ISO/AVC
Duration : 1 h 48 min
Bit rate : 1 590 kb/s
Width : 1 024 pixels
Height : 428 pixels
Display aspect ratio : 2.40:1
Frame rate mode : Constant
Frame rate : 23.976 (24000/1001) FPS
Color space : YUV
Chroma subsampling : 4:2:0
Bit depth : 8 bits
Scan type : Progressive
Bits/(Pixel*Frame) : 0.151
Stream size : 1.21 GiB (55%)
Title : .[wolf1245.MediaBit]
Writing library : x264 core 157 r2958 57baac4
Encoding settings : cabac=1 / ref=14 / deblock=1:-3:-3 / analyse=0x3:0x133 / me=umh / subme=11 / psy=1 / psy_rd=1.00:0.07 / mixed_ref=1 / me_range=48 / chroma_me=1 / trellis=2 / 8x8dct=1 / cqm=0 / deadzone=21,11 / fast_pskip=1 / chroma_qp_offset=-3 / threads=10 / lookahead_threads=2 / sliced_threads=0 / nr=0 / decimate=1 / interlaced=0 / bluray_compat=0 / constrained_intra=0 / bframes=12 / b_pyramid=2 / b_adapt=2 / b_bias=0 / direct=3 / weightb=1 / open_gop=0 / weightp=2 / keyint=240 / keyint_min=24 / scenecut=40 / intra_refresh=0 / rc_lookahead=80 / rc=2pass / mbtree=1 / bitrate=1590 / ratetol=1.0 / qcomp=0.60 / qpmin=0 / qpmax=69 / qpstep=4 / cplxblur=20.0 / qblur=0.5 / vbv_maxrate=50000 / vbv_bufsize=62500 / nal_hrd=none / filler=0 / ip_ratio=1.40 / aq=3:0.80
Language : English
Default : Yes
Forced : No
Color range : Limited
Color primaries : BT.709
Matrix coefficients : BT.709
Audio #1
ID : 2
Format : AC-3
Format/Info : Audio Coding 3
Commercial name : Dolby Digital
Codec ID : A_AC3
Duration : 1 h 48 min
Bit rate mode : Constant
Bit rate : 384 kb/s
Channel(s) : 6 channels
Channel layout : L R C LFE Ls Rs
Sampling rate : 48.0 kHz
Frame rate : 31.250 FPS (1536 SPF)
Compression mode : Lossy
Stream size : 299 MiB (13%)
Title : DUB | iTunes
Language : Russian
Service kind : Complete Main
Default : No
Forced : Yes
Audio #2
ID : 3
Format : AC-3
Format/Info : Audio Coding 3
Commercial name : Dolby Digital
Codec ID : A_AC3
Duration : 1 h 48 min
Bit rate mode : Constant
Bit rate : 448 kb/s
Channel(s) : 6 channels
Channel layout : L R C LFE Ls Rs
Sampling rate : 48.0 kHz
Frame rate : 31.250 FPS (1536 SPF)
Compression mode : Lossy
Stream size : 349 MiB (16%)
Title : MVO | HDRezka Studio
Language : Russian
Service kind : Complete Main
Default : Yes
Forced : No
Audio #3
ID : 4
Format : AC-3
Format/Info : Audio Coding 3
Commercial name : Dolby Digital
Codec ID : A_AC3
Duration : 1 h 48 min
Bit rate mode : Constant
Bit rate : 448 kb/s
Channel(s) : 6 channels
Channel layout : L R C LFE Ls Rs
Sampling rate : 48.0 kHz
Frame rate : 31.250 FPS (1536 SPF)
Compression mode : Lossy
Stream size : 349 MiB (16%)
Language : English
Service kind : Complete Main
Default : No
Forced : No
Text #1
ID : 5
Format : UTF-8
Codec ID : S_TEXT/UTF8
Codec ID/Info : UTF-8 Plain Text
Duration : 1 h 38 min
Bit rate : 1 b/s
Count of elements : 15
Stream size : 1 007 Bytes (0%)
Title : Forced - HDRezka
Language : Russian
Default : Yes
Forced : No
Text #2
ID : 6
Format : UTF-8
Codec ID : S_TEXT/UTF8
Codec ID/Info : UTF-8 Plain Text
Duration : 1 h 38 min
Bit rate : 91 b/s
Count of elements : 1529
Stream size : 66.1 KiB (0%)
Title : Full -[Focs]
Language : Russian
Default : No
Forced : No
Text #3
ID : 7
Format : UTF-8
Codec ID : S_TEXT/UTF8
Codec ID/Info : UTF-8 Plain Text
Duration : 1 h 37 min
Bit rate : 56 b/s
Count of elements : 1504
Stream size : 40.6 KiB (0%)
Language : English
Default : No
Forced : No
Text #4
ID : 8
Format : UTF-8
Codec ID : S_TEXT/UTF8
Codec ID/Info : UTF-8 Plain Text
Duration : 1 h 38 min
Bit rate : 64 b/s
Count of elements : 1784
Stream size : 46.3 KiB (0%)
Title : SDH
Language : English
Default : No
Forced : No
Menu
00:00:00.000 : :Chapter 01
00:05:16.858 : :Chapter 02
00:13:20.550 : :Chapter 03
00:20:18.634 : :Chapter 04
00:27:39.867 : :Chapter 05
00:35:54.110 : :Chapter 06
00:39:41.254 : :Chapter 07
00:45:45.409 : :Chapter 08
00:51:22.204 : :Chapter 09
00:56:34.558 : :Chapter 10
01:01:40.363 : :Chapter 11
01:07:13.446 : :Chapter 12
01:15:41.996 : :Chapter 13
01:22:30.821 : :Chapter 14
01:30:43.938 : :Chapter 15
01:36:45.800 : :Chapter 16
Релиз от: &
Автор релиза:
pb.wtf



Скачать Поступь хаоса через торрент https://i114.fastpic.ru/big/2021/0404/71/1d7150e5e85bc8a2293e9458eba32971.jpeg Скачать, смотреть онлайн Поступь хаоса бесплантно в хорошем качестве Описание: 2257 год. Тодд обнаруживает загадочную девушку Виолу, потерпевшую крушение на его родной планете, где женщины давно исчезли, а ... 10 10 27
Торрент: Зарегистрирован [2021-05-15 19:36] · скачан: 91 раз
Статус: √ проверено
Размер: 2.18 GB
Как cкачать? Как скачать Поступь хаоса через торрент | UTorrent



Последний раз редактировалось: Lithuania (2021-05-15 19:36), всего редактировалось 3 раз(а)

28-11-2019 20:33  

Отключить всю рекламу на сайте

    Дорогой пользователь! Огромная просьба, поблагодарите релизера, оцените раздачу и оставьте свои комментарий, если Вы скачали Поступь хаоса через торрент бесплатно!
    Комментировать посты могут только пользователи прошедшие не сложную регистрацию
    Показать сообщения:    

    Поступь хаоса через торрент
    Скачать бесплатно Поступь хаоса
    Поступь хаоса скачать торрент
    Поступь хаоса смотреть онлайн
    Cкачать фильм Поступь хаоса бесплатно
    Поступь хаоса скачать торрент в хорошем качестве
    Поступь хаоса смотреть онлайн бесплатно в хорошем качестве


    Вы не можете начинать темы
    Вы не можете отвечать на сообщения
    Вы не можете редактировать свои сообщения
    Вы не можете удалять свои сообщения
    Вы не можете голосовать в опросах
    Вы не можете прикреплять файлы к сообщениям
    Вы можете скачивать файлы