Присоединяйтесь к нам в Telegram!, здесь всегда актуальный адрес сайта, оперативная поддержка и многое другое!!

>

5.9

iTunes

7.4

iTunes

9.4

1 сезон

1

7.4

2 сезон

7.2

iTunes

7.3

1 сезон

13

6.1

iTunes

8.3

GOG

30

ULTIMATE

pack

9.9

Лицензия

ВАЖНО

ИГРА 18+

pack

7.3

RePack

MK11

7.7

RePack

jed

7.8

RePack

fifa19

8.5

RePack

RDR2

RePack

NEED FOR SPEED™ PAYBACK

5 сезон

9 сезон

Бесстыжие 9 сезон

Все сериалы

все сериалы на PB.wtf

RePack

FAR CRY 5

Anonymous, добрый вечер, мы катастрофически не успеваем собрать деньги на оплату серверов, помогите нам пожалуйста 5,10,15р., для нас важна любая помощь . В качестве благодарности мы отключим Вам всю рекламу на сайте (укажите свой ник в строку Ваше имя)!

×
  
Magnet ссылка

Годзилла против Конга / Godzilla vs. Kong (Адам Вингард) [2021, боевик, фантастика, HDRip-AVC] DUB, MVO, AVO [iTunes, HDRezka Studio, Яроцкий] от MediaBit pb.wtf

Годзилла против Конга через торрент pb.wtf

Раздают: 1 [ 0 KB/s ]
Размер: 2.66 GB | Добавлен: 5 мес. 22 д. назад | Торрент скачан:75 раз
Смотреть онлайн Годзилла против Конга | Скачать    Ребята, помогите собрать деньги на оплату серверов!!!

04-04-2021 10:05 Годзилла против Конга Скачать торрент  


Годзилла против Конга / Godzilla vs. Kong
Информация о фильме:
Название: Годзилла против Конга
Оригинальное название: Godzilla vs. Kong
Год выхода: 2021
Жанр: боевик, фантастика
Режиссер: Адам Вингард

В ролях: Александр Скарсгард, Милли Бобби Браун, Ребекка Холл, Брайан Тайри Генри, Сюн Огури, Эйса Гонсалес, Джулиан Деннисон, Лэнс Реддик, Кайл Чандлер, Демиан Бичир

Описание: Конг и группа ученых отправляются в опасное путешествие в поисках родного дома гиганта. Среди них девочка Джия, единственная, кто умеет общаться с Конгом. Неожиданно они сталкиваются с разъяренным Годзиллой, разрушающим все на своем пути. Битва двух титанов, спровоцированная неведомыми силами — лишь малая часть тайны, спрятанной в недрах Земли.



Страна: США, Австралия, Канада, Индия
Студия: Legendary Pictures, Warner Bros.
Продолжительность: 01:53:09
Перевод: Дублированный - iTunes , Профессиональный (многоголосый, закадровый) - HDRezka Studio , Авторский - Яроцкий



Информация о файле:
Кодек: AVC
Формат: MKV
Качество: HDRip-AVC
Видео: MPEG-4 AVC, 1024x428, 23.976 fps, 1630 kb/s
Аудио RU: AC3, 6 ch, 48 kHz, 384 kbps | iTunes
Аудио RU: AC3, 6 ch, 48 kHz, 448 kbps | HDRezka Studio
Аудио RU: AC3, 6 ch, 48 kHz, 448 kbps | Яроцкий
Аудио EN: AC3, 6 ch, 48 kHz, 448 kbps
Субтитры: Русские (Forced (Вшитые, стилизованные, на надписи и прочее), full), английские
Навигация по главам: Да

x264 info: frame I:1178 Avg QP:15.89 size: 54217
x264 info: frame P:44622 Avg QP:20.18 size: 16713
x264 info: frame B:116967 Avg QP:21.77 size: 4865
General
Unique ID : 242166674621055206068001309611317199206 (0xB62F9AE27EAE2FBA68EBE72C1FAB0166)
Complete name : D:uTorrentРипы_от_wolf1245_MediaBitGodzilla.vs.Kong.2021..HDRip-AVC.iTunes.[wolf1245.MediaBit].mkv
Format : Matroska
Format version : Version 4
File size : 2.66 GiB
Duration : 1 h 53 min
Overall bit rate : 3 360 kb/s
Movie name : Godzilla.vs.Kong.2021..HDRip-AVC.iTunes.[wolf1245.MediaBit]
Encoded date : UTC 2021-06-08 02:24:16
Writing application : mkvmerge v57.0.0 ('Till The End') 64-bit
Writing library : libebml v1.4.2 + libmatroska v1.6.4
Video
ID : 1
Format : AVC
Format/Info : Advanced Video Codec
Format profile : High@L4.1
Format settings : CABAC / 14 Ref Frames
Format settings, CABAC : Yes
Format settings, Reference frames : 14 frames
Codec ID : V_MPEG4/ISO/AVC
Duration : 1 h 53 min
Bit rate : 1 630 kb/s
Width : 1 024 pixels
Height : 428 pixels
Display aspect ratio : 2.40:1
Frame rate mode : Constant
Frame rate : 23.976 (24000/1001) FPS
Color space : YUV
Chroma subsampling : 4:2:0
Bit depth : 8 bits
Scan type : Progressive
Bits/(Pixel*Frame) : 0.155
Stream size : 1.29 GiB (48%)
Title : .[wolf1245.MediaBit]
Writing library : x264 core 157 r2958 57baac4
Encoding settings : cabac=1 / ref=14 / deblock=1:-3:-3 / analyse=0x3:0x133 / me=umh / subme=11 / psy=1 / psy_rd=1.02:0.07 / mixed_ref=1 / me_range=48 / chroma_me=1 / trellis=2 / 8x8dct=1 / cqm=0 / deadzone=21,11 / fast_pskip=1 / chroma_qp_offset=-3 / threads=10 / lookahead_threads=2 / sliced_threads=0 / nr=0 / decimate=1 / interlaced=0 / bluray_compat=0 / constrained_intra=0 / bframes=12 / b_pyramid=2 / b_adapt=2 / b_bias=0 / direct=3 / weightb=1 / open_gop=0 / weightp=2 / keyint=240 / keyint_min=24 / scenecut=40 / intra_refresh=0 / rc_lookahead=60 / rc=2pass / mbtree=1 / bitrate=1630 / ratetol=1.0 / qcomp=0.60 / qpmin=0 / qpmax=69 / qpstep=4 / cplxblur=20.0 / qblur=0.5 / vbv_maxrate=50000 / vbv_bufsize=62500 / nal_hrd=none / filler=0 / ip_ratio=1.40 / aq=3:0.80
Language : English
Default : Yes
Forced : No
Audio #1
ID : 2
Format : AC-3
Format/Info : Audio Coding 3
Commercial name : Dolby Digital
Codec ID : A_AC3
Duration : 1 h 53 min
Bit rate mode : Constant
Bit rate : 384 kb/s
Channel(s) : 6 channels
Channel layout : L R C LFE Ls Rs
Sampling rate : 48.0 kHz
Frame rate : 31.250 FPS (1536 SPF)
Bit depth : 16 bits
Compression mode : Lossy
Stream size : 311 MiB (11%)
Title : DUB | iTunes
Language : Russian
Service kind : Complete Main
Default : Yes
Forced : No
Audio #2
ID : 3
Format : AC-3
Format/Info : Audio Coding 3
Commercial name : Dolby Digital
Codec ID : A_AC3
Duration : 1 h 53 min
Bit rate mode : Constant
Bit rate : 448 kb/s
Channel(s) : 6 channels
Channel layout : L R C LFE Ls Rs
Sampling rate : 48.0 kHz
Frame rate : 31.250 FPS (1536 SPF)
Bit depth : 16 bits
Compression mode : Lossy
Stream size : 363 MiB (13%)
Title : MVO | [HDRezka Studio]
Language : Russian
Service kind : Complete Main
Default : No
Forced : No
Audio #3
ID : 4
Format : AC-3
Format/Info : Audio Coding 3
Commercial name : Dolby Digital
Codec ID : A_AC3
Duration : 1 h 53 min
Bit rate mode : Constant
Bit rate : 448 kb/s
Channel(s) : 6 channels
Channel layout : L R C LFE Ls Rs
Sampling rate : 48.0 kHz
Frame rate : 31.250 FPS (1536 SPF)
Bit depth : 16 bits
Compression mode : Lossy
Stream size : 363 MiB (13%)
Title : AVO | [М.Яроцкий]
Language : Russian
Service kind : Complete Main
Default : No
Forced : No
Audio #4
ID : 5
Format : AC-3
Format/Info : Audio Coding 3
Commercial name : Dolby Digital
Codec ID : A_AC3
Duration : 1 h 53 min
Bit rate mode : Constant
Bit rate : 448 kb/s
Channel(s) : 6 channels
Channel layout : L R C LFE Ls Rs
Sampling rate : 48.0 kHz
Frame rate : 31.250 FPS (1536 SPF)
Bit depth : 16 bits
Compression mode : Lossy
Stream size : 363 MiB (13%)
Title : Original
Language : English
Service kind : Complete Main
Default : No
Forced : No
Text #1
ID : 6
Format : UTF-8
Codec ID : S_TEXT/UTF8
Codec ID/Info : UTF-8 Plain Text
Duration : 1 h 52 min
Bit rate : 62 b/s
Count of elements : 916
Stream size : 51.5 KiB (0%)
Title : Full
Language : Russian
Default : No
Forced : No
Text #2
ID : 7
Format : UTF-8
Codec ID : S_TEXT/UTF8
Codec ID/Info : UTF-8 Plain Text
Duration : 1 h 45 min
Bit rate : 50 b/s
Count of elements : 1415
Stream size : 39.5 KiB (0%)
Language : English
Default : No
Forced : No
Menu
00:00:00.000 : :Chapter 01
00:09:51.591 : :Chapter 02
00:20:07.498 : :Chapter 03
00:29:02.366 : :Chapter 04
00:38:39.734 : :Chapter 05
00:49:15.995 : :Chapter 06
00:57:17.017 : :Chapter 07
01:09:07.977 : :Chapter 08
01:18:33.876 : :Chapter 09
01:30:06.109 : :Chapter 10
01:41:58.946 : :Chapter 11
Релиз от: &
Автор релиза:
pb.wtf



Скачать Годзилла против Конга через торрент https://i114.fastpic.ru/big/2021/0402/c6/2d71c575e95b585014ab03efb736f4c6.jpg Скачать, смотреть онлайн Годзилла против Конга бесплантно в хорошем качестве Описание: Конг и группа ученых отправляются в опасное путешествие в поисках родного дома гиганта. Среди них девочка Джия, единственная, ... 10 10 24
Info! Золотая раздача, скачанное не засчитывается.
Торрент: Зарегистрирован [2021-06-08 02:45] · скачан: 75 раз
Статус: √ проверено
Размер: 2.66 GB
Как cкачать? Как скачать Годзилла против Конга через торрент | UTorrent

28-11-2019 20:33  

Отключить всю рекламу на сайте

    Дорогой пользователь! Огромная просьба, поблагодарите релизера, оцените раздачу и оставьте свои комментарий, если Вы скачали Годзилла против Конга через торрент бесплатно!
    Комментировать посты могут только пользователи прошедшие не сложную регистрацию
    Показать сообщения:    

    Годзилла против Конга через торрент
    Скачать бесплатно Годзилла против Конга
    Годзилла против Конга скачать торрент
    Годзилла против Конга смотреть онлайн
    Cкачать фильм Годзилла против Конга бесплатно
    Годзилла против Конга скачать торрент в хорошем качестве
    Годзилла против Конга смотреть онлайн бесплатно в хорошем качестве


    Вы не можете начинать темы
    Вы не можете отвечать на сообщения
    Вы не можете редактировать свои сообщения
    Вы не можете удалять свои сообщения
    Вы не можете голосовать в опросах
    Вы не можете прикреплять файлы к сообщениям
    Вы можете скачивать файлы