1 сезон

1 сезон

iTunes

1

КиноПоиск HD

Кинопоиск HD

iTunes

13

1 сезон

RePack

30

Ultimate

ВАЖНО

ИГРА 18+

pack

RePack

MK11
pack

Легкие деньги

RePack

jed

RePack

fifa19

RePack

RDR2

RePack

NEED FOR SPEED™ PAYBACK

4 сезон

9 сезон

Бесстыжие 9 сезон

Все сериалы

все сериалы на PB.wtf

RePack

FAR CRY 5
  
Magnet ссылка

Оборотень / The Wolf of Snow Hollow (Джим Каммингс) [2020, Ужасы, комедия, детектив, BDRip 720p] [DUB] [iTunes] (Rus, Ukr) pb.wtf

Оборотень через торрент pb.wtf

Раздают: 10 [ 69 KB/s ] Качают: 1 [ 0 KB/s ]
Размер: 4.92 GB | Добавлен: 7 д. назад | Торрент скачан:98 раз
Скачать  

05-04-2021 07:39 Оборотень Скачать торрент  

Оборотень / The Wolf of Snow Hollow Информация о фильме

Год выхода: 2020
Жанр: Ужасы, комедия, детектив
Выпущено: США / Vanishing Angle, New Form
Продолжительность: 01:24:43
Озвучивание #1: Дублированное | Русский язык | iTunes
Озвучивание #2: Дублированное | Украинский язык | iTunes

Режиссер: Джим Каммингс

В ролях: Джим Каммингс, Рики Линдхоум, Роберт Форстер, Хлоя Ист, Джимми Татро, Маршалл Оллман, Лаура Кувер, Энни Хэмилтон, Джессика Парк, Келси Эдвардс

О фильме: Ужас охватывает небольшой городок, когда в нем после каждого полнолуния находят растерзанные жертвы. Местный офицер полиции, расследуя это дело, верит только фактам и не верит в сказки, но улики неумолимо указывают на то, что это дело рук оборотня..

rating

Качество: BDRip 720p
Формат: MKV
Видео: MPEG-4 AVC, 6910 Kb/s, 1280x692
Аудио #1: Russian: 48 kHz, AC3 Dolby Digital, 3/2 (L, C, R, l, r) + LFE ch, ~384 Kbps | DUB | iTunes
Аудио #2: Ukrainian: 48 kHz, AC3 Dolby Digital, 3/2 (L, C, R, l, r) + LFE ch, ~384 Kbps | DUB | iTunes
Аудио #3: English: 48 kHz, AC3 Dolby Digital, 3/2 (L, C, R, l, r) + LFE ch, ~640 Kbps | Original
Субтитры: English

Дополнительно: Сохранены оригинальные чаптеры.

Релиз группы: &
Complete name : Oboroten.2020.BDRip.720p.ELEKTRI4KA.UNIONGANG.mkv
Format : Matroska
Format version : Version 4
File size : 4.92 GiB
Duration : 1 h 24 min
Overall bit rate : 8 321 kb/s
Movie name : Oboroten.2020.BDRip.720p.ELEKTRI4KA.UNIONGANG.
Encoded date : UTC 2021-04-04 19:15:05
Writing application : mkvmerge v8.3.0 ('Over the Horizon') 64bit
Writing library : libebml v1.3.1 + libmatroska v1.4.2

Video
ID : 1
Format : AVC
Format/Info : Advanced Video Codec
Format profile : High@L4.1
Format settings : CABAC / 9 Ref Frames
Format settings, CABAC : Yes
Format settings, Reference frames : 9 frames
Codec ID : V_MPEG4/ISO/AVC
Duration : 1 h 24 min
Bit rate : 6 910 kb/s
Width : 1 280 pixels
Height : 692 pixels
Display aspect ratio : 1.85:1
Frame rate mode : Constant
Frame rate : 23.976 (24000/1001) FPS
Color space : YUV
Chroma subsampling : 4:2:0
Bit depth : 8 bits
Scan type : Progressive
Bits/(Pixel*Frame) : 0.325
Stream size : 4.09 GiB (83%)
Writing library : x264 core 161 r3018+53 ~ Encoded by Mocunaman in Portugal
Encoding settings : cabac=1 / ref=9 / deblock=1:-3:-3 / analyse=0x3:0x113 / me=umh / subme=11 / psy=1 / fade_compensate=0.00 / psy_rd=1.00:0.00 / mixed_ref=1 / me_range=32 / chroma_me=1 / trellis=2 / 8x8dct=1 / cqm=0 / deadzone=21, 11 / fast_pskip=0 / chroma_qp_offset=-2 / threads=22 / lookahead_threads=5 / sliced_threads=0 / nr=0 / decimate=0 / interlaced=0 / bluray_compat=0 / constrained_intra=0 / fgo=0 / bframes=10 / b_pyramid=2 / b_adapt=2 / b_bias=0 / direct=3 / weightb=1 / open_gop=0 / weightp=2 / keyint=250 / keyint_min=23 / scenecut=40 / intra_refresh=0 / rc_lookahead=60 / rc=crf / mbtree=0 / crf=15.1000 / qcomp=0.60 / qpmin=0:0:0 / qpmax=69:69:69 / qpstep=4 / vbv_maxrate=62500 / vbv_bufsize=78125 / crf_max=0.0 / nal_hrd=none / filler=0 / ip_ratio=1.30 / pb_ratio=1.20 / aq=3:0.80 / aq-sensitivity=10.00 / aq-factor=1.00:1.00:1.00 / aq2=0 / aq3=0 / zones=9845, 10041, crf=15.3/28509, 28539, crf=14.1/29363, 30688, crf=14.1/31932, 32450, crf=14.1/60113, 62544, crf=14.1/73455, 73832, crf=14/76820, 79108, crf=14/79274, 82178, crf=14/83927, 84118, crf=14/101694, 101786, crf=14/108362, 110311, crf=14
Language : English
Default : Yes
Forced : No
Color range : Limited
Color primaries : BT.709
Transfer characteristics : BT.709
Matrix coefficients : BT.709

Audio #1
ID : 2
Format : AC-3
Format/Info : Audio Coding 3
Commercial name : Dolby Digital
Codec ID : A_AC3
Duration : 1 h 24 min
Bit rate mode : Constant
Bit rate : 384 kb/s
Channel(s) : 6 channels
Channel layout : L R C LFE Ls Rs
Sampling rate : 48.0 kHz
Frame rate : 31.250 FPS (1536 SPF)
Compression mode : Lossy
Stream size : 233 MiB (5%)
Title : DUB (iTunes)
Language : Russian
Service kind : Complete Main
Default : Yes
Forced : Yes

Audio #2
ID : 3
Format : AC-3
Format/Info : Audio Coding 3
Commercial name : Dolby Digital
Codec ID : A_AC3
Duration : 1 h 24 min
Bit rate mode : Constant
Bit rate : 384 kb/s
Channel(s) : 6 channels
Channel layout : L R C LFE Ls Rs
Sampling rate : 48.0 kHz
Frame rate : 31.250 FPS (1536 SPF)
Compression mode : Lossy
Stream size : 233 MiB (5%)
Title : DUB (iTunes)
Language : Ukrainian
Service kind : Complete Main
Default : No
Forced : No

Audio #3
ID : 4
Format : AC-3
Format/Info : Audio Coding 3
Commercial name : Dolby Digital
Codec ID : A_AC3
Duration : 1 h 24 min
Bit rate mode : Constant
Bit rate : 640 kb/s
Channel(s) : 6 channels
Channel layout : L R C LFE Ls Rs
Sampling rate : 48.0 kHz
Frame rate : 31.250 FPS (1536 SPF)
Compression mode : Lossy
Stream size : 388 MiB (8%)
Title : Original
Language : English
Service kind : Complete Main
Default : No
Forced : No

Text #1
ID : 5
Format : UTF-8
Codec ID : S_TEXT/UTF8
Codec ID/Info : UTF-8 Plain Text
Duration : 1 h 16 min
Bit rate : 81 b/s
Count of elements : 1317
Stream size : 45.9 KiB (0%)
Title : Full .srt
Language : English
Default : No
Forced : No

Text #2
ID : 6
Format : UTF-8
Codec ID : S_TEXT/UTF8
Codec ID/Info : UTF-8 Plain Text
Duration : 1 h 16 min
Bit rate : 92 b/s
Count of elements : 1518
Stream size : 52.0 KiB (0%)
Title : SDH .srt
Language : English
Default : No
Forced : No

Menu
00:00:00.000 : en:Chapter 01
00:09:36.617 : en:Chapter 02
00:19:16.405 : en:Chapter 03
00:26:44.352 : en:Chapter 04
00:36:27.101 : en:Chapter 05
00:46:03.969 : en:Chapter 06
00:54:05.742 : en:Chapter 07
01:01:42.073 : en:Chapter 08
01:10:00.029 : en:Chapter 09
01:19:41.985 : en:Chapter 10
скриншот  скриншот  скриншот  
pb.wtf



Скачать Оборотень через торрент https://i3.imageban.ru/out/2021/04/04/c3ea4df3f8bf4916eab6e3cd7caafb1f.png Скачать фильм Оборотень через торрент бесплантно в хорошем качестве О фильме: Ужас охватывает небольшой городок, когда в нем после каждого полнолуния находят растерзанные жертвы. Местный офицер полиции, ... 10 10 2
Торрент: Зарегистрирован [2021-04-05 07:39] · скачан: 98 раз
Статус: √ проверено
Размер: 4.92 GB
Как cкачать? Как скачать Оборотень через торрент | UTorrent

% Раздел Тема Автор DL S | L
Фильмы 2019-2020 [DVDrip, WEB-DLRip, HDrip] (DUB, MVO) [ 2.36 GB ] Оборотень / The Wolf of Snow Hollow [2020 HDRip-AVC] от MediaBit Lithuania Скачать
22 | 0
Фильмы 2019-2020 [DVDrip, WEB-DLRip, HDrip] (DUB, MVO) [ 1.46 GB ] Оборотень / The Wolf of Snow Hollow [2020 HDRip] killermax2013 Скачать
29 | 0
Фильмы [HD 720p, 1080p] (Хороший звук DUB, MVO) [ 9.46 GB ] Оборотень / The Wolf of Snow Hollow [2020 BDRip 1080p] killermax2013 Скачать
22 | 0

28-11-2019 20:33  

Отключить всю рекламу на сайте

    Дорогой пользователь! Огромная просьба, поблагодарите релизера, оцените раздачу и оставьте свои комментарий, если Вы скачали Оборотень через торрент бесплатно! Внесите свою лепту в развитие PiratBit!
    Комментировать посты могут только пользователи прошедшие не сложную регистрацию
    Показать сообщения:    

    Оборотень через торрент
    Скачать бесплатно Оборотень
    Оборотень скачать торрент
    Оборотень смотреть онлайн
    Cкачать фильм Оборотень бесплатно
    Оборотень скачать торрент в хорошем качестве
    Оборотень смотреть онлайн бесплатно в хорошем качестве


    Вы не можете начинать темы
    Вы не можете отвечать на сообщения
    Вы не можете редактировать свои сообщения
    Вы не можете удалять свои сообщения
    Вы не можете голосовать в опросах
    Вы не можете прикреплять файлы к сообщениям
    Вы можете скачивать файлы