1 сезон

1 сезон

iTunes

1

КиноПоиск HD

Кинопоиск HD

iTunes

13

1 сезон

RePack

30

Новинка

ВАЖНО

ИГРА 18+

pack

RePack

MK11
pack

Легкие деньги

RePack

jed

RePack

fifa19

RePack

RDR2

RePack

NEED FOR SPEED™ PAYBACK

4 сезон

9 сезон

Бесстыжие 9 сезон

Все сериалы

все сериалы на PB.wtf

RePack

FAR CRY 5
  
Magnet ссылка

Белый снег (Николай Хомерики) [2021, биография, спорт, драма, WEB-DL 1080p] pb.wtf

Белый снег через торрент pb.wtf

Раздают: 23 [ 825 KB/s ]
Размер: 4.14 GB | Добавлен: 6 д. назад | Торрент скачан:240 раз
Скачать  

05-04-2021 17:06 Белый снег Скачать торрент  

Белый снег
Год выпуска: 2021
Производство: ЭГО Продакшн
Жанр: биография, спорт, драма
Продолжительность: 02:06:54
Перевод: Не требуется
Режиссёр: Николай Хомерики
В ролях: Ольга Лерман, Фёдор Добронравов, Надежда Маркина, Анна Уколова, Александр Устюгов, Дарья Екамасова, Анна Котова-Дерябина, Вадим Андреев, Дмитрий Поднозов, Александр Горбатов, Полина Чернышова, Екатерина Агеева, Полина Ватага, Александр Клюквин, Александр Тарасюк
Описание: Фильм повествует о том, как маленькая девочка Лена из Магадана, преодолев все испытания, достигла высочайших успехов в спорте, а также о реальных событиях, произошедших в 1997 году на чемпионате мира по лыжным видам спорта в Норвегии, когда впервые в истории лыжных гонок российская лыжница Елена Вяльбе завоевала пять золотых медалей из пяти возможных.
rating
Качество: WEB-DL 1080p
Формат: MKV
Видео: MPEG-4 (AVC), 1920х1080 (2.40:1), 25 fps, ~ 4500 kbps, 0.122 bit/pixel
Аудио: AAC, 44.1 kHz, 2 ch, 192 Kbps

Цитата:

- Источник PREMIER (присутствует логотип видеосервиса).

Код:

General
Unique ID                                : 284846829179054617458115448332005714881 (0xD64B80F83F960922B4A37C07E9A4ABC1)
Complete name                            : Belyy.sneg.2021.1080p.PREMIER.WEB-DL.AAC2.0.H.264-EniaHD.mkv
Format                                   : Matroska
Format version                           : Version 4
File size                                : 4.14 GiB
Duration                                 : 2 h 6 min
Overall bit rate mode                    : Variable
Overall bit rate                         : 4 668 kb/s
Encoded date                             : UTC 2021-04-05 12:58:02
Writing application                      : mkvmerge v55.0.0 ('Waiting For Space') 64-bit
Writing library                          : libebml v1.4.2 + libmatroska v1.6.4

Video
ID                                       : 1
Format                                   : AVC
Format/Info                              : Advanced Video Codec
Format profile                           : High@L4
Format settings                          : CABAC / 1 Ref Frames
Format settings, CABAC                   : Yes
Format settings, Reference frames        : 1 frame
Format settings, GOP                     : M=1, N=48
Codec ID                                 : V_MPEG4/ISO/AVC
Duration                                 : 2 h 6 min
Bit rate mode                            : Variable
Bit rate                                 : 4 500 kb/s
Width                                    : 1 920 pixels
Height                                   : 800 pixels
Display aspect ratio                     : 2.40:1
Frame rate mode                          : Constant
Frame rate                               : 24.000 FPS
Color space                              : YUV
Chroma subsampling                       : 4:2:0
Bit depth                                : 8 bits
Scan type                                : Progressive
Bits/(Pixel*Frame)                       : 0.122
Stream size                              : 3.97 GiB (96%)
Default                                  : Yes
Forced                                   : No

Audio
ID                                       : 2
Format                                   : AAC LC
Format/Info                              : Advanced Audio Codec Low Complexity
Codec ID                                 : A_AAC-2
Duration                                 : 2 h 6 min
Bit rate                                 : 192 kb/s
Channel(s)                               : 2 channels
Channel layout                           : L R
Sampling rate                            : 44.1 kHz
Frame rate                               : 43.066 FPS (1024 SPF)
Compression mode                         : Lossy
Stream size                              : 174 MiB (4%)
Language                                 : Russian
Default                                  : Yes
Forced                                   : No

скриншот  скриншот  скриншот  скриншот  
pb.wtf



Скачать Белый снег через торрент https://i114.fastpic.ru/big/2021/0405/e6/3905b130029ca390569a63cac9886ae6.png Скачать фильм Белый снег через торрент бесплантно в хорошем качестве Описание: Фильм повествует о том, как маленькая девочка Лена из Магадана, преодолев все испытания, достигла высочайших успехов в спорте, а ... 10 10 8
Info! Золотая раздача, скачанное не засчитывается.
Торрент: Зарегистрирован [2021-04-05 17:06] · скачан: 240 раз
Статус: √ проверено
Размер: 4.14 GB
Как cкачать? Как скачать Белый снег через торрент | UTorrent

% Раздел Тема Автор DL S | L
Отечественный шансон [ 114 MB ] Олег Безъязыков - Белый Снег России 2018 / MP3 / 320 kbps / Шансон bober100 Скачать
1 | 0
Разное [ 310 MB ] Юрий Воробьевский - Черный снег на белом поле [2008 MP3 96 kbps] metanoia Скачать
1 | 0
Фильмы 2010 [ 1.45 GB ] Белый как снег / Blanc comme neige [2010 HDRip [НТВ Ворон Скачать
1 | 0
Фильмы [HD 720p, 1080p] (Хороший звук DUB, MVO) [ 6.85 GB ] Белый как снег / Blanc comme neige [2010 BDRip ] Flint3 Скачать
1 | 0

28-11-2019 20:33  

Отключить всю рекламу на сайте


    Дорогой пользователь! Огромная просьба, поблагодарите релизера, оцените раздачу и оставьте свои комментарий, если Вы скачали Белый снег через торрент бесплатно! Внесите свою лепту в развитие PiratBit!
    Комментировать посты могут только пользователи прошедшие не сложную регистрацию
    Показать сообщения:    

    Белый снег через торрент
    Скачать бесплатно Белый снег
    Белый снег скачать торрент
    Белый снег смотреть онлайн
    Cкачать фильм Белый снег бесплатно
    Белый снег скачать торрент в хорошем качестве
    Белый снег смотреть онлайн бесплатно в хорошем качестве


    Вы не можете начинать темы
    Вы не можете отвечать на сообщения
    Вы не можете редактировать свои сообщения
    Вы не можете удалять свои сообщения
    Вы не можете голосовать в опросах
    Вы не можете прикреплять файлы к сообщениям
    Вы можете скачивать файлы