1 сезон

1 сезон

iTunes

1

КиноПоиск HD

Кинопоиск HD

iTunes

13

1 сезон

RePack

30

Новинка

ВАЖНО

ИГРА 18+

pack

RePack

MK11
pack

Легкие деньги

RePack

jed

RePack

fifa19

RePack

RDR2

RePack

NEED FOR SPEED™ PAYBACK

4 сезон

9 сезон

Бесстыжие 9 сезон

Все сериалы

все сериалы на PB.wtf

RePack

FAR CRY 5
  
Magnet ссылка

Папик (2 сезон: 1-16 серии из 16) / 2021 / РУ / WEB-DL (1080p) pb.wtf

Папик через торрент pb.wtf

Раздают: 9 [ 1 MB/s ] Качают: 6 [ 0 KB/s ]
Размер: 16.9 GB | Добавлен: 3 д. назад | Торрент скачан:25 раз
Скачать  

05-04-2021 21:33 Папик Скачать торрент  

Папик
Год выпуска: 2021
Страна: Украина, Студия Квартал 95
Жанр: Комедия
Продолжительность: 16 x ~ 00:35:00
Перевод: Не требуется Русский
Тип релиза: Лицензия

Режиссер: Андрей Яковлев (I)

rating

В ролях: Станислав Боклан, Дарья Петрожицкая, Сергей Сипливый, Олеся Жураковская, Екатерина Кистень, Вера Кобзарь, Вячеслав Гиндин, Михаил Кукуюк, Эльдар Кабиров, Максим Максимюк, Ярослав Чорненький, Борис Книженко, Алексей Череватенко, Анастасия Чепелюк, Олеся Гаевая, Дарья Рыбак, Евгения Мякенькая, Марина Дьяконенко, Наталья Кленина, Сергей Деньга, Леся Самаева

Описание: В продолжении истории актёр на пенсии Александр Меркулов снова пытается начать новую жизнь. Только теперь не со смены имиджа, а с выхода из тюрьмы. Ведь дольче вита в чужом особняке с гламурной охотницей за «папиками» Лизой обернулась заключением в камере. Тем временем Лиза после удачного выступления в телешоу попадает в поп-группу и уезжает в первое турне. Хотя главных героев и развела судьба, они продолжают спасать друг друга в самых сложных ситуациях.

Качество: WEB-DL 1080p
Формат: MKV
Видео кодек: MPEG4
Аудио кодек: AC3
Видео: MPEG-4 AVC, ~ 4000 Кбит/с, 1920x1080
Аудио#1: AC3, 2 ch, 192 Кбит/с
General
Unique ID : 184059447159934318351724125388898809100 (0x8A788F619DF6197491C203F2AD03B50C)
Complete name : F:\Films and Serials\Papik.S02.2021.WEB-DL.(1080p).Getty\Papik.s02e01.2021.WEB-DL.(1080p).Getty.mkv
Format : Matroska
Format version : Version 4
File size : 1.07 GiB
Duration : 36 min 30 s
Overall bit rate : 4 202 kb/s
Movie name : Papik.s02e01.2021.WEB-DL.(1080p).Getty
Encoded date : UTC 2021-03-29 19:20:50
Writing application : mkvmerge v7.8.0 ('River Man') 32bit built on Mar 27 2015 16:18:02
Writing library : libebml v1.3.1 + libmatroska v1.4.2

Video
ID : 1
Format : AVC
Format/Info : Advanced Video Codec
Format profile : High@L4
Format settings : CABAC / 4 Ref Frames
Format settings, CABAC : Yes
Format settings, Reference fra : 4 frames
Codec ID : V_MPEG4/ISO/AVC
Duration : 36 min 30 s
Bit rate : 4 008 kb/s
Width : 1 920 pixels
Height : 1 080 pixels
Display aspect ratio : 16:9
Frame rate mode : Constant
Frame rate : 25.000 FPS
Color space : YUV
Chroma subsampling : 4:2:0
Bit depth : 8 bits
Scan type : Progressive
Bits/(Pixel*Frame) : 0.077
Stream size : 1.02 GiB (95%)
Default : Yes
Forced : No

Audio
ID : 2
Format : AC-3
Format/Info : Audio Coding 3
Commercial name : Dolby Digital
Codec ID : A_AC3
Duration : 36 min 30 s
Bit rate mode : Constant
Bit rate : 192 kb/s
Channel(s) : 2 channels
Channel layout : L R
Sampling rate : 48.0 kHz
Frame rate : 31.250 FPS (1536 SPF)
Compression mode : Lossy
Stream size : 50.1 MiB (5%)
Service kind : Complete Main
Default : Yes
Forced : No

Когда раздача ведётся путём добавления новых серий, при каждом добавлении создётся новый торрент. Чтобы начать докачку новой серии, пользователям необходимо сделать следующее:
(1) остановить скачивание,
(2) удалить старый торрент у себя из клиента (старые серии удалять не надо),
(3) скачать новый торрент и запустить его у себя в клиенте вместо старого, при этом указать клиенту путь в старую папку, куда и должно происходить скачивание новых серий.
Ваш клиент при этом должен произвести хеширование (проверку) старой папки (если не производит сам - помогите ему сделать это), и будет докачивать только те серии, которых у вас ещё нет. Старые серии при этом не удаляются, а продолжают раздаваться!

Раздача ведётся путём добавления новых серий. Eсли вы уже удалили старые серии, то предотвратить повторную закачку старых серий можно, отжав галочку в соответсвующих местах при запуске нового торрента. По возможности, желательно не удалять старые серии как можно дольше, чтобы релизёр не столько продолжал раздавать старые серии, а смог сконцентрироваться на новых.

pb.wtf



Скачать Папик через торрент https://img10.lostpic.net/2021/04/05/0e14c6fece1fc615b6eade8035c2b055.jpg Скачать фильм Папик через торрент бесплантно в хорошем качестве Описание: В продолжении истории актёр на пенсии Александр Меркулов снова пытается начать новую жизнь. Только теперь не со смены имиджа, а с ... 10 10 4
× Info от релизера! Добавлена 15-16 серии. Финал сезона
Торрент: Зарегистрирован [2021-04-08 20:54] · скачан: 25 раз
Статус: не проверено
Размер: 16.9 GB
Как cкачать? Как скачать Папик через торрент | UTorrent

% Раздел Тема Автор DL S | L
Наши сериалы [ 7.04 GB ] Папик / Сезон: 2 / Серии: 1-16 из 16 ) [2021 WEB-DLRip] GEKADOL Скачать
31 | 18
Наши сериалы [ 7.28 GB ] Папик / Сезон: 1 / Серии: 1-16 из 16 + Взгляд изнутри [2019 WEB-DL 720p] bober100 Скачать
4 | 0
Наши сериалы [ 14.51 GB ] Папик / Сезон: 1 / Серии: 1-16 из 16 [2019 WEB-DL 1080p] bober100 Скачать
3 | 1
Наши сериалы [ 6.48 GB ] Папик / Сезон: 1 / Серии: 1-16 из 16 + Взгляд изнутри [2019 WEB-DLRip] bober100 Скачать
3 | 0
Наши сериалы [ 6.44 GB ] Папик / Сезон: 1 / Серии: 1-16 из 16 + Взгляд изнутри [2019 WEB-DLRip-AVC] bober100 Скачать
2 | 1
Порно фильмы с сюжетом [ 2.2 GB ] Vacation With Daddy / Отпуск с папиком [2018 18+ TeensOlder MenбPublic SexAll sexFacial DVDRip] Venom Скачать
1 | 0
Сцены из фильмов [ 337 MB ] Няшка и богатый папик / Riley Steele [2013 All Sex Oral Big Tits DVDRip] sheker187 Скачать
2 | 0


Последний раз редактировалось: piloter (2021-04-08 20:54), всего редактировалось 3 раз(а)

28-11-2019 20:33  

Отключить всю рекламу на сайте

06-04-2021 21:38 Папик Скачать торрент  

Добавлена 11-12 серииpb.wtf



07-04-2021 21:12 Папик Скачать торрент  

Добавлена 13-14 серииpb.wtf



08-04-2021 20:54 Папик Скачать торрент  

Добавлена 15-16 серии. Финал сезонаpb.wtf



09-04-2021 10:27 Папик Скачать торрент  

А раздача будет?pb.wtf



    Дорогой пользователь! Огромная просьба, поблагодарите релизера, оцените раздачу и оставьте свои комментарий, если Вы скачали Папик через торрент бесплатно! Внесите свою лепту в развитие PiratBit!
    Комментировать посты могут только пользователи прошедшие не сложную регистрацию
    Показать сообщения:    

    Папик через торрент
    Скачать бесплатно Папик
    Папик скачать торрент
    Папик смотреть онлайн
    Cкачать фильм Папик бесплатно
    Папик скачать торрент в хорошем качестве
    Папик смотреть онлайн бесплатно в хорошем качестве


    Вы не можете начинать темы
    Вы не можете отвечать на сообщения
    Вы не можете редактировать свои сообщения
    Вы не можете удалять свои сообщения
    Вы не можете голосовать в опросах
    Вы не можете прикреплять файлы к сообщениям
    Вы можете скачивать файлы