1 сезон

1 сезон

iTunes

1

КиноПоиск HD

Кинопоиск HD

iTunes

13

1 сезон

RePack

30

Ultimate

ВАЖНО

ИГРА 18+

pack

RePack

MK11
pack

Легкие деньги

RePack

jed

RePack

fifa19

RePack

RDR2

RePack

NEED FOR SPEED™ PAYBACK

4 сезон

9 сезон

Бесстыжие 9 сезон

Все сериалы

все сериалы на PB.wtf

RePack

FAR CRY 5
  
Magnet ссылка

Шоу на краю света / Rendez-vous chez les Malawas (Джеймс Ют) [2019 г., комедия, WEB-DLRip, Профессиональный многоголосый закадровый "iTunes"] pb.wtf

Шоу на краю света через торрент pb.wtf

Раздают: 3 [ 0 KB/s ]
Размер: 723 MB | Добавлен: 5 д. назад | Торрент скачан:21 раз
Скачать  

06-04-2021 18:07 Шоу на краю света Скачать торрент  

Шоу на краю света / Rendez-vous chez les Malawas
Год выпуска: 2019
Страна: Франция, Бельгия / Eskwad, Pathé, TF1 Films Production
Жанр: комедия
Продолжительность: 01:32:19
Перевод: Профессиональный многоголосый закадровый (iTunes)
«Путешествие с риском для жизни»

Режиссер: Джеймс Ют

rating

В ролях: Кристиан Клавье, Микаэль Юн, Рамзи Бедиа, Сильви Тестю, Паскаль Элбе, Франсуа Леванталь, Басс Дем, Камилла Жапи

Описание: Известный телеведущий, знаменитый стендап-комик, звезда ветеринарного шоу и всеми любимый футболист отправляются в Африку на съёмки шоу «Сафари со звездами». Сначала они узнают, что все надо делать самим, затем у них отбирают мобильные телефоны. После полета через песчаную бурю они наконец-то добираются до основного пункта назначения — деревни племени малави. Вокруг дикие звери и невероятная первозданная природа. К тому же четверо участников должны найти общий язык и между собой, и с туземцами. Срежиссированное приключение очень быстро выходит из-под контроля — участники шоу решают сбежать и самостоятельно добраться до цивилизации.

Качество: WEB-DLRip
Формат: AVI
Видео кодек: DivX
Аудио кодек: MP3
Видео: 640x344 (1.86:1), 24.000 fps, DivX Codec 4.x ~957 kbps avg, 0.18 bit/pixel
Аудио: 48 kHz, MPEG Layer 3, 2 ch, ~128.00 kbps avg








Общее
Полное имя : G:\ФИЛЬМЫ\Шоу на краю света.2019.WEB-DLRip.avi
Формат : AVI
Формат/Информация : Audio Video Interleave
Размер файла : 723 Мбайт
Продолжительность : 1 ч. 32 м.
Общий поток : 1 095 Кбит/сек
Программа кодирования : VirtualDubMod 1.5.10.3 | www.virtualdub-fr.org || (build 2550/release)
Библиотека кодирования : VirtualDubMod build 2550/release

Видео
Идентификатор : 0
Формат : MPEG-4 Visual
Профиль формата : Advanced Simple@L5
Настройки формата : BVOP2
Параметр BVOP формата : 2
Параметр QPel формата : Нет
Параметр GMC формата : Без точки перехода
Параметр матрицы формата : Default (MPEG)
Идентификатор кодека : DIVX
Идентификатор кодека/Информация : Project Mayo
Идентификатор кодека/Подсказка : DivX 4
Продолжительность : 1 ч. 32 м.
Битрейт : 957 Кбит/сек
Ширина : 640 пикселей
Высота : 344 пикселя
Соотношение сторон : 1,85:1
Частота кадров : 24,000 кадра/сек
Цветовое пространство : YUV
Субдискретизация насыщенности : 4:2:0
Битовая глубина : 8 бит
Тип развёртки : Прогрессивная
Метод сжатия : С потерями
Бит/(Пиксели*Кадры) : 0.181
Размер потока : 632 Мбайт (87%)
Библиотека кодирования : XviD 1.2.1 (UTC 2008-12-04)

Аудио
Идентификатор : 1
Формат : MPEG Audio
Версия формата : Version 1
Профиль формата : Layer 3
Настройки формата : Joint stereo
Идентификатор кодека : 55
Идентификатор кодека/Подсказка : MP3
Продолжительность : 1 ч. 32 м.
Вид битрейта : Постоянный
Битрейт : 128 Кбит/сек
Каналы : 2 канала
Частота : 48,0 КГц
Частота кадров : 41,667 кадра/сек (1152 SPF)
Метод сжатия : С потерями
Размер потока : 84,5 Мбайт (12%)
Выравнивание : Соединение по промежуткам
Продолжительность промежутка : 42 мс. (1,00 видеокадр)
Время предзагрузки промежутка : 504 мс.
Библиотека кодирования : LAME3.99r
Настройки программы : -m j -V 4 -q 2 -lowpass 17 -b 128

Report created by : MediaInfoLib - v21.03
Report created on : UTC 2021-04-06 17:49:48

pb.wtf



Скачать Шоу на краю света через торрент https://pic1.kartinco.top/new/img/2021-04/06/kea206gaz2eyf32jukhg42k86.jpg Скачать фильм Шоу на краю света через торрент бесплантно в хорошем качестве Описание: Известный телеведущий, знаменитый стендап-комик, звезда ветеринарного шоу и всеми любимый футболист отправляются в Африку на ... 5 10 1
Торрент: Зарегистрирован [2021-04-06 18:07] · скачан: 21 раз
Статус: √ проверено
Размер: 723 MB
Как cкачать? Как скачать Шоу на краю света через торрент | UTorrent

% Раздел Тема Автор DL S | L
Фильмы 2019-2020 [DVDrip, WEB-DLRip, HDrip] (DUB, MVO) [ 2.05 GB ] Шоу на краю света / Каникулы в Африке / Rendez-vous chez les Malawas [2019 WEB-DLRip-AVC] MVO от MediaBit Lithuania Скачать
34 | 0

28-11-2019 20:33  

Отключить всю рекламу на сайте

    Дорогой пользователь! Огромная просьба, поблагодарите релизера, оцените раздачу и оставьте свои комментарий, если Вы скачали Шоу на краю света через торрент бесплатно! Внесите свою лепту в развитие PiratBit!
    Комментировать посты могут только пользователи прошедшие не сложную регистрацию
    Показать сообщения:    

    Шоу на краю света через торрент
    Скачать бесплатно Шоу на краю света
    Шоу на краю света скачать торрент
    Шоу на краю света смотреть онлайн
    Cкачать фильм Шоу на краю света бесплатно
    Шоу на краю света скачать торрент в хорошем качестве
    Шоу на краю света смотреть онлайн бесплатно в хорошем качестве


    Вы не можете начинать темы
    Вы не можете отвечать на сообщения
    Вы не можете редактировать свои сообщения
    Вы не можете удалять свои сообщения
    Вы не можете голосовать в опросах
    Вы не можете прикреплять файлы к сообщениям
    Вы можете скачивать файлы