1 сезон

1 сезон

iTunes

1

КиноПоиск HD

Кинопоиск HD

iTunes

13

1 сезон

RePack

30

Ultimate

ВАЖНО

ИГРА 18+

pack

RePack

MK11
pack

Легкие деньги

RePack

jed

RePack

fifa19

RePack

RDR2

RePack

NEED FOR SPEED™ PAYBACK

4 сезон

9 сезон

Бесстыжие 9 сезон

Все сериалы

все сериалы на PB.wtf

RePack

FAR CRY 5
  
Magnet ссылка

Парижская полиция 1900 / Paris Police 1900 / Сезон: 1 / Серии: 1-8 из 8 (Жюльен Деспо, Фредерик Балекджян, Фабьен Нури) [2021, драма, криминал, детектив, история, WEBRip 720p] [MVO] (HDRezka Studio) pb.wtf

Парижская полиция 1900 через торрент pb.wtf

Раздают: 15 [ 52 KB/s ]
Размер: 6.18 GB | Добавлен: 5 д. назад | Торрент скачан:89 раз
Скачать  

07-04-2021 09:36 Парижская полиция 1900 Скачать торрент  

Парижская полиция 1900 / Paris Police 1900

Год выпуска: 2021
Страна: Франция
Жанр: драма, криминал, детектив, история
Продолжительность: ~ 8 x 00:58:00
Перевод: Профессиональный (многоголосый закадровый) *HDRezka Studio*
Режиссёр: Жюльен Деспо, Фредерик Балекджян, Фабьен Нури

В ролях: Жереми Лаэрт, Эвелин Брошу, Тибо Эврар, Марк Барбе, Южени Деруан, Патрик д’Асумсао, Александр Троки, Юбер Делаттре, Валери Дэшвуд, Симон Беллуар
Описание: В Сене найден труп неизвестной женщины. За расследование дела берется молодой амбициозный инспектор и неожиданно приходит к раскрытию государственный тайны.
rating

Качество: WEBRip 720p
Контейнер: MKV
Видео: 1280x720 at 25 fps, MPEG-4 AVC, ~1 800 kbps avg
Аудио: 48 kHz, AC3, 3/2 (L,C,R,l,r) + LFE ch, ~448 kbps avg
Субтитры: русские (forced)
General
Unique ID : 200088204643764392494058471148975243679 (0x96879623D448963545D9359F5C3F419F)
Complete name : F:\Новая папка\Paris.Police.1900.2021.S01.720p\Paris.Police.1900.S01E01.WEBRip.720p.rus.5.1.HDREZKA.STUDIO.mkv
Format : Matroska
Format version : Version 4 / Version 2
File size : 911 MiB
Duration : 57mn 32s
Overall bit rate mode : Variable
Overall bit rate : 2 213 Kbps
Encoded date : UTC 2021-03-02 03:46:30
Writing application : mkvmerge v28.2.0 ('The Awakening') 64-bit
Writing library : libebml v1.3.6 + libmatroska v1.4.9
DURATION : 00:56:25.730000000
NUMBER_OF_FRAMES : 17
NUMBER_OF_BYTES : 921
_STATISTICS_WRITING_APP : mkvmerge v28.2.0 ('The Awakening') 64-bit
_STATISTICS_WRITING_DATE_UTC : 2021-03-02 03:46:30
_STATISTICS_TAGS : BPS DURATION NUMBER_OF_FRAMES NUMBER_OF_BYTES

Video
ID : 1
Format : AVC
Format/Info : Advanced Video Codec
Format profile : High@L4.1
Format settings, CABAC : Yes
Format settings, ReFrames : 1 frame
Codec ID : V_MPEG4/ISO/AVC
Duration : 57mn 32s
Bit rate mode : Variable
Bit rate : 1 721 Kbps
Maximum bit rate : 2 000 Kbps
Width : 1 280 pixels
Height : 720 pixels
Display aspect ratio : 16:9
Frame rate mode : Constant
Frame rate : 25.000 fps
Color space : YUV
Chroma subsampling : 4:2:0
Bit depth : 8 bits
Scan type : Progressive
Bits/(Pixel*Frame) : 0.075
Stream size : 708 MiB (78%)
Default : Yes
Forced : No

Audio
ID : 2
Format : AC-3
Format/Info : Audio Coding 3
Mode extension : CM (complete main)
Format settings, Endianness : Big
Codec ID : A_AC3
Duration : 57mn 32s
Bit rate mode : Constant
Bit rate : 448 Kbps
Channel(s) : 6 channels
Channel positions : Front: L C R, Side: L R, LFE
Sampling rate : 48.0 KHz
Compression mode : Lossy
Stream size : 184 MiB (20%)
Language : Russian
Default : Yes
Forced : No

Text
ID : 3
Format : UTF-8
Codec ID : S_TEXT/UTF8
Codec ID/Info : UTF-8 Plain Text
Language : Russian
Default : No
Forced : No
скриншот   скриншот   скриншот   скриншот  
pb.wtf



Скачать Парижская полиция 1900 через торрент https://i114.fastpic.ru/big/2021/0407/a6/2fc05d5a20560e518fa687cb2f95faa6.jpg Скачать фильм Парижская полиция 1900 через торрент бесплантно в хорошем качестве Описание: В Сене найден труп неизвестной женщины. За расследование дела берется молодой амбициозный инспектор и неожиданно приходит к ... 10 10 5
Торрент: Зарегистрирован [2021-04-07 09:36] · скачан: 89 раз
Статус: √ проверено
Размер: 6.18 GB
Как cкачать? Как скачать Парижская полиция 1900 через торрент | UTorrent

% Раздел Тема Автор DL S | L
Зарубежные сериалы [ 42.34 GB ] Парижская полиция 1900 / Paris Police 1900 / Сезон: 1 / Серии: 1-8 из 8 [2021 история BDRip 1080p] [MVO] killermax2013 Скачать
3 | 0
Зарубежные сериалы [ 1.57 GB ] Парижская полиция 1900 / Paris Police 1900 / Сезон: 1 / Серии: 1- из 8 [2021 история WEB-DL 720p] MVO [TVShows] bober100 Скачать
1 | 0

28-11-2019 20:33  

Отключить всю рекламу на сайте

    Дорогой пользователь! Огромная просьба, поблагодарите релизера, оцените раздачу и оставьте свои комментарий, если Вы скачали Парижская полиция 1900 через торрент бесплатно! Внесите свою лепту в развитие PiratBit!
    Комментировать посты могут только пользователи прошедшие не сложную регистрацию
    Показать сообщения:    

    Парижская полиция 1900 через торрент
    Скачать бесплатно Парижская полиция 1900
    Парижская полиция 1900 скачать торрент
    Парижская полиция 1900 смотреть онлайн
    Cкачать фильм Парижская полиция 1900 бесплатно
    Парижская полиция 1900 скачать торрент в хорошем качестве
    Парижская полиция 1900 смотреть онлайн бесплатно в хорошем качестве


    Вы не можете начинать темы
    Вы не можете отвечать на сообщения
    Вы не можете редактировать свои сообщения
    Вы не можете удалять свои сообщения
    Вы не можете голосовать в опросах
    Вы не можете прикреплять файлы к сообщениям
    Вы можете скачивать файлы