1 сезон

1 сезон

iTunes

1

КиноПоиск HD

Кинопоиск HD

iTunes

13

1 сезон

RePack

30

Новинка

ВАЖНО

ИГРА 18+

pack

RePack

MK11
pack

Легкие деньги

RePack

jed

RePack

fifa19

RePack

RDR2

RePack

NEED FOR SPEED™ PAYBACK

4 сезон

9 сезон

Бесстыжие 9 сезон

Все сериалы

все сериалы на PB.wtf

RePack

FAR CRY 5
  
Magnet ссылка

Как приручить дракона 3 / How to Train Your Dragon: The Hidden World (Дин ДеБлуа) [2019 г., Мультфильм, Фэнтези, Боевик, Приключения, Семейный, BDRip 720p / 60 FPS, Дубляж] от R.G. HD-Films pb.wtf

Как приручить дракона 3 через торрент pb.wtf

Раздают: 7 [ 0 KB/s ]
Размер: 3.76 GB | Добавлен: 4 д. назад | Торрент скачан:40 раз
Скачать  

07-04-2021 14:38 Как приручить дракона 3 Скачать торрент  

Как приручить дракона 3 / How to Train Your Dragon: The Hidden World
Год выпуска: 2019
Страна: США, Япония
Жанр: Мультфильм, Фэнтези, Боевик, Приключения, Семейный
Продолжительность: 01:44:06
Перевод: Дубляж
Субтитры: русские, английские

Режиссер: Дин ДеБлуа

Бюджет: $129 000 000
Премьера в мире: 3 января 2019

rating

В ролях: Кейт Бланшетт, Джерард Батлер, Джона Хилл, Кит Харингтон, Кристен Уиг, Джей Барушель, Кристофер Минц-Плассе, Америка Феррера, Оулавюр Дарри Оулафссон, Ф. Мюррэй Абрахам

Описание: Когда-то викинги жили в гармонии с драконами. В те времена они делили радость, горе… и последние штаны. Казалось, что так будет всегда, но появление загадочной Дневной Фурии изменило жизнь острова. И теперь Иккинг и Беззубик столкнутся с безжалостным охотником на драконов, жаждущим уничтожить все, что им дорого.
Качество: BDRip 720p / 60 FPS
Формат: MKV
Видео кодек: H.264
Аудио кодек: AC3
Видео: x264, 1280 x 544 ( 2,35:1 ), 4791 kbps, 60,000 fps, ( 0.115 bpp)
Аудио#1: Русский, AC-3, 48.0 KHz, 6 ch, 384 Kbps
Релиз от: Автор рипа: slaventi-69
Общее
Уникальный идентификатор : 70477715642793460990899889612007830130 (0x350583A8F547FEE3D9E6D93B3A027272)
Полное имя : F:\How.to.Train.Your,Dragon.3.(2019).BDRip.720p.(60 Fps).mkv
Формат : Matroska
Версия формата : Version 4
Размер файла : 3,76 Гбайт
Продолжительность : 1 ч. 43 м.
Общий поток : 5179 Кбит/сек
Название фильма : Как приручить дракона 3 / How to Train Your Dragon: The Hidden World (2019) BDRip 720p (60 Fps)
Дата кодирования : UTC 2021-04-07 14:05:04
Программа кодирования : mkvmerge v52.0.0 ('Secret For The Mad') 64-bit
Библиотека кодирования : libebml v1.4.1 + libmatroska v1.6.2

Видео
Идентификатор : 1
Формат : AVC
Формат/Информация : Advanced Video Codec
Профиль формата : High@L4.1
Настройки формата : CABAC / 9 Ref Frames
Параметр CABAC формата : Да
Параметр RefFrames формата : 9 кадров
Идентификатор кодека : V_MPEG4/ISO/AVC
Продолжительность : 1 ч. 43 м.
Битрейт : 4791 Кбит/сек
Ширина : 1280 пикселей
Высота : 544 пикселя
Соотношение сторон : 2,35:1
Режим частоты кадров : Постоянный
Частота кадров : 60,000 кадров/сек
Цветовое пространство : YUV
Субдискретизация насыщенности : 4:2:0
Битовая глубина : 8 бит
Тип развёртки : Прогрессивная
Бит/(Пиксели*Кадры) : 0.115
Размер потока : 3,48 Гбайт (93%)
Заголовок : slaventi-69 ( R.G. HD-Films | 60 fps )
Библиотека кодирования : x264 core 130 r2273 b3065e6
Настройки программы : cabac=1 / ref=9 / deblock=1:0:0 / analyse=0x3:0x133 / me=umh / subme=9 / psy=1 / psy_rd=1.00:0.00 / mixed_ref=1 / me_range=32 / chroma_me=1 / trellis=2 / 8x8dct=1 / cqm=0 / deadzone=21,11 / fast_pskip=0 / chroma_qp_offset=-2 / threads=12 / lookahead_threads=4 / sliced_threads=0 / nr=0 / decimate=1 / interlaced=0 / bluray_compat=0 / constrained_intra=0 / bframes=5 / b_pyramid=2 / b_adapt=2 / b_bias=0 / direct=2 / weightb=1 / open_gop=0 / weightp=2 / keyint=250 / keyint_min=25 / scenecut=40 / intra_refresh=0 / rc=crf / mbtree=0 / crf=17.0 / qcomp=0.60 / qpmin=0 / qpmax=69 / qpstep=4 / ip_ratio=1.40 / pb_ratio=1.30 / aq=1:1.00
Язык : English
Default : Да
Forced : Нет

Аудио
Идентификатор : 2
Формат : AC-3
Формат/Информация : Audio Coding 3
Коммерческое название : Dolby Digital
Идентификатор кодека : A_AC3
Продолжительность : 1 ч. 43 м.
Вид битрейта : Постоянный
Битрейт : 384 Кбит/сек
Каналы : 6 каналов
Channel layout : L R C LFE Ls Rs
Частота : 48,0 КГц
Частота кадров : 31,250 кадров/сек (1536 SPF)
Битовая глубина : 16 бит
Метод сжатия : С потерями
Размер потока : 286 Мбайт (7%)
Заголовок : Dub
Язык : Russian
ServiceKind/String : Complete Main
Default : Да
Forced : Нет

Текст #1
Идентификатор : 3
Формат : UTF-8
Идентификатор кодека : S_TEXT/UTF8
Идентификатор кодека/Информация : UTF-8 Plain Text
Продолжительность : 1 ч. 32 м.
Битрейт : 73 бит/сек
ElementCount : 1054
Размер потока : 49,7 Кбайт (0%)
Заголовок : Full
Язык : Russian
Default : Нет
Forced : Нет

Текст #2
Идентификатор : 4
Формат : UTF-8
Идентификатор кодека : S_TEXT/UTF8
Идентификатор кодека/Информация : UTF-8 Plain Text
Продолжительность : 1 ч. 43 м.
Битрейт : 62 бит/сек
ElementCount : 1792
Размер потока : 48,0 Кбайт (0%)
Заголовок : SDH
Язык : English
Default : Нет
Forced : Нет

Меню
00:00:00.000 : en:Chapter 1
00:05:13.521 : en:Chapter 2
00:10:26.834 : en:Chapter 3
00:14:52.224 : en:Chapter 4
00:20:33.065 : en:Chapter 5
00:24:38.685 : en:Chapter 6
00:28:40.885 : en:Chapter 7
00:31:10.118 : en:Chapter 8
00:37:35.127 : en:Chapter 9
00:44:38.550 : en:Chapter 10
00:47:53.579 : en:Chapter 11
00:53:11.021 : en:Chapter 12
00:57:36.286 : en:Chapter 13
01:01:25.056 : en:Chapter 14
01:08:55.923 : en:Chapter 15
01:14:17.703 : en:Chapter 16
01:19:31.141 : en:Chapter 17
01:23:23.289 : en:Chapter 18
01:28:24.716 : en:Chapter 19
01:33:53.377 : en:Chapter 20

Просьба к переливающим на другие сайты, в оформлении указывайте пожалуйста авторство группы R.G. HD-Films pb.wtf



Скачать Как приручить дракона 3 через торрент https://c.radikal.ru/c18/1904/9e/97fd27bb5658.png Скачать фильм Как приручить дракона 3 через торрент бесплантно в хорошем качестве Описание: Когда-то викинги жили в гармонии с драконами. В те времена они делили радость, горе… и последние штаны. Казалось, что так будет ... 10 10 7
Info! Золотая раздача, скачанное не засчитывается.
Торрент: Зарегистрирован [2021-04-07 14:38] · скачан: 40 раз
Статус: √ проверено
Размер: 3.76 GB
Как cкачать? Как скачать Как приручить дракона 3 через торрент | UTorrent

28-11-2019 20:33  

Отключить всю рекламу на сайте

07-04-2021 18:37 Как приручить дракона 3 Скачать торрент  

Спасибо огромное от сына! После "Гадкого Я" можно увидеть "Билал / Bilal: A New Breed of Hero" в твоём исполнении!pb.wtf



07-04-2021 19:07 Как приручить дракона 3 Скачать торрент  

михакруг писал(а):

Спасибо огромное от сына! После "Гадкого Я" можно увидеть "Билал / Bilal: A New Breed of Hero" в твоём исполнении!

Пожалуйста. Попробуем. Спасибо за Золото.pb.wtf



07-04-2021 22:40 Как приручить дракона 3 Скачать торрент  

Ой, правда круто. Огромное спасибо!pb.wtf



    Дорогой пользователь! Огромная просьба, поблагодарите релизера, оцените раздачу и оставьте свои комментарий, если Вы скачали Как приручить дракона 3 через торрент бесплатно! Внесите свою лепту в развитие PiratBit!
    Комментировать посты могут только пользователи прошедшие не сложную регистрацию
    Показать сообщения:    

    Как приручить дракона 3 через торрент
    Скачать бесплатно Как приручить дракона 3
    Как приручить дракона 3 скачать торрент
    Как приручить дракона 3 смотреть онлайн
    Cкачать фильм Как приручить дракона 3 бесплатно
    Как приручить дракона 3 скачать торрент в хорошем качестве
    Как приручить дракона 3 смотреть онлайн бесплатно в хорошем качестве


    Вы не можете начинать темы
    Вы не можете отвечать на сообщения
    Вы не можете редактировать свои сообщения
    Вы не можете удалять свои сообщения
    Вы не можете голосовать в опросах
    Вы не можете прикреплять файлы к сообщениям
    Вы можете скачивать файлы